Статистика раздачи
Нет
 
     
 
 

MAGNAT ®

Пол:
Мужской
Стаж:
1 год 11 месяцев
Сообщений:
9392

Ведьмы / The Witches- Год выпуска: 2020
Страна: Мексика, США, Канада / Double Dare You, ImageMovers, Warner Bros.
Жанр: Фэнтези, комедия, детектив, приключения, семейный
Продолжительность: 01:44:13
Перевод: Профессиональный (дублированный)
Субтитры: русские (форсированные 2х)-Режиссер: Роберт Земекис / Robert Zemeckis-В ролях: Энн Хэтэуэй, Октавия Спенсер, Стэнли Туччи, Крис Рок, Коди-Лей Истик, Чарльз Эдвардс, Моргана Робинсон, Джазир Бруно, Евгения Карузо, Саймон Маньонда.-Описание: Ведьмы существуют, и они среди нас! Знаменитую книгу Даля заново откроют для современных зрителей. Визуально инновационные «Ведьмы» Земекиса расскажут полную мрачного юмора и в то же время трогательную историю юного сироты. В конце 1967 года мальчик переезжает к своей любимой бабушке в Демополис, сельский городок в Алабаме. Там они случайно сталкиваются с обманчиво обаятельными и дьявольски коварными ведьмами, поэтому бабуля мудро увозит нашего юного героя на роскошный морской курорт. Увы, они приезжают туда ровно тогда, когда Величайшая Самая Главная Ведьма собирает – конечно же, тайно – последовательниц со всего света, чтобы воплотить свои страшные злодейские планы.
Качество видео: BDRip-AVC
Формат видео: MKV | Sample
Видео: 720x302 (2.40:1), 23.976 fps, x264@L4.1 ~935 kbps avg, 0.179 bit/pixel
Аудио: 48 kHz, AAC HE, 2/0 (L,R) ch, ~64 kbps avg / RUS

Инфо

Format : Matroska
Format version : Version 4
File size : 745 MiB
Duration : 1 h 44 min
Overall bit rate : 999 kb/s
Movie name : The Witches / 2020
Encoded date : UTC 2021-01-06 15:54:52
Writing application : mkvmerge v51.0.0 ('I Wish') 32-bit
Writing library : libebml v1.4.0 + libmatroska v1.6.2
Video
ID : 1
Format : AVC
Format/Info : Advanced Video Codec
Format profile : High@L4.1
Format settings : CABAC / 10 Ref Frames
Format settings, CABAC : Yes
Format settings, Reference : 10 frames
Codec ID : V_MPEG4/ISO/AVC
Duration : 1 h 44 min
Bit rate : 935 kb/s
Width : 720 pixels
Height : 302 pixels
Display aspect ratio : 2.40:1
Frame rate mode : Constant
Frame rate : 23.976 (24000/1001) FPS
Color space : YUV
Chroma subsampling : 4:2:0
Bit depth : 8 bits
Scan type : Progressive
Bits/(Pixel*Frame) : 0.179
Stream size : 695 MiB (93%)
Title : BDRip-AVC
Writing library : x264 core 146 r2538 121396c
Encoding settings : cabac=1 / ref=10 / deblock=1:-3:-3 / analyse=0x3:0x133 / me=umh / subme=11 / psy=1 / psy_rd=0.95:0.05 / mixed_ref=1 / me_range=32 / chroma_me=1 / trellis=2 / 8x8dct=1 / cqm=0 / deadzone=21,11 / fast_pskip=0 / chroma_qp_offset=-3 / threads=6 / lookahead_threads=1 / sliced_threads=0 / nr=0 / decimate=0 / interlaced=0 / bluray_compat=0 / constrained_intra=0 / bframes=10 / b_pyramid=2 / b_adapt=2 / b_bias=0 / direct=3 / weightb=1 / open_gop=0 / weightp=2 / keyint=240 / keyint_min=23 / scenecut=40 / intra_refresh=0 / rc_lookahead=40 / rc=2pass / mbtree=1 / bitrate=935 / ratetol=1.0 / qcomp=0.60 / qpmin=0 / qpmax=69 / qpstep=4 / cplxblur=20.0 / qblur=0.5 / vbv_maxrate=50000 / vbv_bufsize=62500 / nal_hrd=none / filler=0 / ip_ratio=1.40 / aq=1:1.00
Language : English
Default : Yes
Forced : No
Audio
ID : 2
Format : AAC LC SBR
Format/Info : Advanced Audio Codec Low Complexity with Spectral Band Replication
Commercial name : HE-AAC
Format settings : Explicit
Codec ID : A_AAC-2
Duration : 1 h 44 min
Bit rate : 64.0 kb/s
Channel(s) : 2 channels
Channel layout : L R
Sampling rate : 48.0 kHz
Frame rate : 23.438 FPS (2048 SPF)
Compression mode : Lossy
Stream size : 47.7 MiB (6%)
Title : Dub
Language : Russian
Default : Yes
Forced : No
Text #1
ID : 3
Format : UTF-8
Codec ID : S_TEXT/UTF8
Codec ID/Info : UTF-8 Plain Text
Duration : 1 h 33 min
Bit rate : 1 b/s
Count of elements : 18
Stream size : 867 Bytes (0%)
Title : Forced V-1
Language : Russian
Default : Yes
Forced : No
Text #2
ID : 4
Format : UTF-8
Codec ID : S_TEXT/UTF8
Codec ID/Info : UTF-8 Plain Text
Duration : 1 h 31 min
Bit rate : 2 b/s
Count of elements : 19
Stream size : 1.42 KiB (0%)
Title : Forced V-2
Language : Russian
Default : No
Forced : No
Menu
00:00:00.000 : en:Chapter 01
00:04:03.869 : en:Chapter 02
00:13:14.794 : en:Chapter 03
00:22:01.529 : en:Chapter 04
00:30:30.120 : en:Chapter 05
00:38:44.322 : en:Chapter 06
00:44:19.532 : en:Chapter 07
00:52:37.154 : en:Chapter 08
01:00:47.352 : en:Chapter 09
01:07:36.511 : en:Chapter 10
01:15:25.312 : en:Chapter 11
01:22:22.437 : en:Chapter 12
01:31:18.932 : en:Chapter 13
01:35:29.641 : en:Chapter 14

Скриншоты

Профиль [ЛС]
Показать сообщения:    

Текущее время: 28-Фев 21:18

Часовой пояс: UTC ± 0



Вы не можете начинать темы
Вы не можете отвечать на сообщения
Вы не можете редактировать свои сообщения
Вы не можете удалять свои сообщения
Вы не можете голосовать в опросах
Вы не можете прикреплять файлы к сообщениям
Вы не можете скачивать файлы