Статистика раздачи
Нет
 
     
 
 

K15 ®

Пол:
Мужской
Стаж:
1 год 1 месяц
Сообщений:
248

Информация о фильме
Название: Небесный огонь
Оригинальное название: Skyfire
Год выхода: 2019
Жанр: Боевик, триллер, драма
Режиссер: Саймон Уэст
В ролях: Ханна Куинливан, Ван Сюэци, Шон Доу, Вивиан, Цзи Линчэнь, Джейсон Айзекс, Ши Лян, Лоуренс де Стефано, Хоу Тунцзян, Оуэн Квонг
О фильме: Ещё ребенком Сяомэн увидела гибель мамы в облаке пепла на одном из островов Тихоокеанского вулканического огненного кольца. Девушка выросла и пошла по стопам родителей — стала сейсмологом, правда, с отцом после того трагического случая отношения так и не наладились. С командой учёных Сяомэн приезжает на тот самый злосчастный остров, чтобы установить новую систему мониторинга вулканической активности, так как на днях у подножия вулкана открывается новый курорт, а владелец бизнеса и слышать не хочет о потенциальной опасности. Но вскоре начнётся новое извержение, и райский островок превратится в море огня.

Страна: Китай
Студия: Base FX, China Film Co., Ltd., Gosdom, Highland Film Group (HFG), Meridian Entertainment, Production Capital
Продолжительность: 01:33:20
Перевод: Профессиональный (полное дублирование) | IVI
Файл
Качество: BDRip-AVC
Исходник: Skyfire.2019.BDRemux.1080p-Kyle
Формат: MKV
Кодек: MPEG-4 AVC
Видео: 832x348 (2.40:1), 23,976 fps, MPEG-4 AVC ~ 1788 Kbps avg, 0.258 bit/pixel
Аудио: AC3, 48 kHz, 6 ch, ~384.00 kbps avg | русский | IVI
Субтитры: Английские (полные)

Релиз:

Инфо-файл

Общее
Уникальный идентификатор : 160556420858006788143373011667487977635 (0x78CA0AB7F417C3A48930394ABD0E70A3)
Полное имя : Skyfire.2019.BDRip.1.42Gb.x264.MegaPeer .mkv
Формат : Matroska
Версия формата : Version 4
Размер файла : 1,42 Гбайт
Продолжительность : 1 ч. 33 м.
Общий поток : 2 173 Кбит/сек
Название фильма : Небесный огонь / Skyfire (2019) от MegaPeer
Дата кодирования : UTC 2021-01-30 05:51:18
Программа кодирования : mkvmerge v47.0.0 ('Black Flag') 64-bit
Библиотека кодирования : libebml v1.3.10 + libmatroska v1.5.2
Обложка : Yes
Attachments : cover.jpg / cover.jpg
Видео
Идентификатор : 1
Формат : AVC
Формат/Информация : Advanced Video Codec
Профиль формата : High@L4.1
Настройки формата : CABAC / 12 Ref Frames
Параметр CABAC формата : Да
Параметр RefFrames формата : 12 кадров
Идентификатор кодека : V_MPEG4/ISO/AVC
Продолжительность : 1 ч. 33 м.
Битрейт : 1 788 Кбит/сек
Ширина : 832 пикселя
Высота : 348 пикселей
Соотношение сторон : 2,40:1
Режим частоты кадров : Постоянный
Частота кадров : 23,976 кадра/сек
Цветовое пространство : YUV
Субдискретизация насыщенности : 4:2:0
Битовая глубина : 8 бит
Тип развёртки : Прогрессивная
Бит/(Пиксели*Кадры) : 0.258
Размер потока : 1,16 Гбайт (82%)
Заголовок : stillet@MegaPeer
Библиотека кодирования : x264 core 161 r3018 db0d417
Настройки программы : cabac=1 / ref=12 / deblock=1:-2:-2 / analyse=0x3:0x113 / me=umh / subme=11 / psy=1 / psy_rd=1.00:0.00 / mixed_ref=1 / me_range=48 / chroma_me=1 / trellis=2 / 8x8dct=1 / cqm=0 / deadzone=21,11 / fast_pskip=0 / chroma_qp_offset=-2 / threads=11 / lookahead_threads=2 / sliced_threads=0 / nr=0 / decimate=0 / interlaced=0 / bluray_compat=0 / constrained_intra=0 / bframes=11 / b_pyramid=2 / b_adapt=2 / b_bias=0 / direct=3 / weightb=1 / open_gop=0 / weightp=2 / keyint=240 / keyint_min=24 / scenecut=40 / intra_refresh=0 / rc_lookahead=40 / rc=2pass / mbtree=0 / bitrate=1788 / ratetol=1.0 / qcomp=0.60 / qpmin=0 / qpmax=69 / qpstep=4 / cplxblur=20.0 / qblur=0.5 / vbv_maxrate=50000 / vbv_bufsize=62500 / nal_hrd=none / filler=0 / ip_ratio=1.40 / pb_ratio=1.30 / aq=1:1.10
Язык : English
Default : Да
Forced : Нет
Аудио
Идентификатор : 2
Формат : AC-3
Формат/Информация : Audio Coding 3
Коммерческое название : Dolby Digital
Идентификатор кодека : A_AC3
Продолжительность : 1 ч. 33 м.
Вид битрейта : Постоянный
Битрейт : 384 Кбит/сек
Каналы : 6 каналов
Channel layout : L R C LFE Ls Rs
Частота : 48,0 КГц
Частота кадров : 31,250 кадров/сек (1536 SPF)
Метод сжатия : С потерями
Размер потока : 256 Мбайт (18%)
Заголовок : DUB | IVI
Язык : Russian
Service kind : Complete Main
Default : Да
Forced : Да
Текст
Идентификатор : 3
Формат : UTF-8
Идентификатор кодека : S_TEXT/UTF8
Идентификатор кодека/Информация : UTF-8 Plain Text
Продолжительность : 1 ч. 24 м.
Битрейт : 32 бит/сек
Count of elements : 696
Размер потока : 19,8 Кбайт (0%)
Заголовок : Full
Язык : English
Default : Нет
Forced : Нет
Меню
00:00:00.000 : en:Chapter 01
00:11:59.634 : en:Chapter 02
00:23:07.885 : en:Chapter 03
00:37:36.128 : en:Chapter 04
00:50:04.083 : en:Chapter 05
01:03:13.914 : en:Chapter 06
01:17:20.761 : en:Chapter 07
01:29:06.882 : en:Chapter 08

Скриншоты

Профиль [ЛС]
Показать сообщения:    

Текущее время: 28-Фев 21:27

Часовой пояс: UTC ± 0



Вы не можете начинать темы
Вы не можете отвечать на сообщения
Вы не можете редактировать свои сообщения
Вы не можете удалять свои сообщения
Вы не можете голосовать в опросах
Вы не можете прикреплять файлы к сообщениям
Вы не можете скачивать файлы