Статистика раздачи
Нет
 
     
 
 

MAGNAT ®

Пол:
Мужской
Стаж:
1 год 11 месяцев
Сообщений:
9392

Спаситель / Redemption Day- Год выхода: 2021
Страна: Марокко, США
Жанр: боевик, триллер
Продолжительность: 01:39:59
Перевод: Любительский (многоголосый закадровый) AlphaProject
Субтитры: нет
Оригинальная аудиодорожка: Английская-Режиссер:
Хичам Хаджи / Hicham Hajji-В ролях:
Гэри Дурдан, Энди Гарсиа, Эрни Хадсон, Мартин Донован, Роберт Неппер, Сами Насери, Серинда Свон, Брайс Бекстер, Дон Бигг, Джей Футлик-О фильме:
Будучи награжденным Почетной медалью за храбрость во время перестрелки с ИГИЛ, капитан морской пехоты США Брэд Пакстон страдает от долгосрочных последствий пребывания в зоне боевых действий. С поддержкой любящей жены Кейт Брэд пытается приспособиться к гражданской жизни.
Когда Кейт, известному археологу, предоставляется уникальная возможность сделать карьеру в Марокко, Брэд призывает ее не упускать этот шанс. Однако когда Кейт приезжает, ее берет в заложники террористическая группа, которая требует 10 миллионов долларов в качестве выкупа. Брэд мчится в Марокко, где посол США прекратил переговоры об освобождении Кейт после того, как сделка поставила под угрозу переговоры ООН о будущих поставках нефти в регионе. Когда раскрываются необычные обстоятельства похищения Кейт, Брэд вынужден использовать свои военные навыки в смелой и смертоносной операции, чтобы найти виновных и спасти женщину, которую он любит.-Качество: WEB-DLRip [AMZN]
Формат: AVI
Видео: 704x288 (2.44:1), 23.976 fps, XviD build 69 ~1685 kbps avg, 0.35 bit/pixel
Аудио #1: 48 kHz, AC3 Dolby Digital, 2/0 (L,R) ch, ~192 kbps avg (RUS) - Thx KinoPub
Аудио #2: 48 kHz, AC3 Dolby Digital, 2/0 (L,R) ch, ~192 kbps avg (ENG)-

Скриншоты

-

MediaInfo

Код:Общее
Полное имя : E:\Redemption_Day_2021_WEB-DLRip_by_Dalemake.avi
Формат : AVI
Формат/Информация : Audio Video Interleave
Размер файла : 1,46 Гбайт
Продолжительность : 1 ч. 39 м.
Общий поток : 2 084 Кбит/сек
Программа кодирования : VirtualDubMod 1.5.10.3 | www.virtualdub-fr.org || (build 2550/release)
Библиотека кодирования : VirtualDubMod build 2550/release
Видео
Идентификатор : 0
Формат : MPEG-4 Visual
Профиль формата : Advanced Simple@L5
Настройки формата : BVOP1 / Custom Matrix
Параметр BVOP формата : 1
Параметр QPel формата : Нет
Параметр GMC формата : Без точки перехода
Параметр матрицы формата : Выборочная
Идентификатор кодека : XVID
Идентификатор кодека/Подсказка : XviD
Продолжительность : 1 ч. 39 м.
Битрейт : 1 686 Кбит/сек
Ширина : 704 пикселя
Высота : 288 пикселей
Соотношение сторон : 2,40:1
Частота кадров : 23,976 (24000/1001) кадра/сек
Цветовое пространство : YUV
Субдискретизация насыщенности : 4:2:0
Битовая глубина : 8 бит
Тип развёртки : Прогрессивная
Метод сжатия : С потерями
Бит/(Пиксели*Кадры) : 0.347
Размер потока : 1,18 Гбайт (81%)
Библиотека кодирования : XviD 69
Аудио #1
Идентификатор : 1
Формат : AC-3
Формат/Информация : Audio Coding 3
Коммерческое название : Dolby Digital
Идентификатор кодека : 2000
Продолжительность : 1 ч. 39 м.
Вид битрейта : Постоянный
Битрейт : 192 Кбит/сек
Каналы : 2 канала
Channel layout : L R
Частота : 48,0 КГц
Частота кадров : 31,250 кадров/сек (1536 SPF)
Метод сжатия : С потерями
Размер потока : 137 Мбайт (9%)
Выравнивание : Разделение по промежуткам
Продолжительность промежутка : 42 мс. (1,00 видеокадр)
Время предзагрузки промежутка : 500 мс.
Service kind : Complete Main
Аудио #2
Идентификатор : 2
Формат : AC-3
Формат/Информация : Audio Coding 3
Коммерческое название : Dolby Digital
Идентификатор кодека : 2000
Продолжительность : 1 ч. 39 м.
Вид битрейта : Постоянный
Битрейт : 192 Кбит/сек
Каналы : 2 канала
Channel layout : L R
Частота : 48,0 КГц
Частота кадров : 31,250 кадров/сек (1536 SPF)
Метод сжатия : С потерями
Размер потока : 137 Мбайт (9%)
Выравнивание : Разделение по промежуткам
Продолжительность промежутка : 42 мс. (1,00 видеокадр)
Время предзагрузки промежутка : 500 мс.
Service kind : Complete Main
-
Профиль [ЛС]
Показать сообщения:    

Текущее время: 28-Фев 21:42

Часовой пояс: UTC ± 0



Вы не можете начинать темы
Вы не можете отвечать на сообщения
Вы не можете редактировать свои сообщения
Вы не можете удалять свои сообщения
Вы не можете голосовать в опросах
Вы не можете прикреплять файлы к сообщениям
Вы не можете скачивать файлы