Статистика раздачи
Нет
 
     
 
 

MAGNAT ®

Пол:
Мужской
Стаж:
1 год 11 месяцев
Сообщений:
9392

Блаженство / Bliss
Страна: США
Жанр: фантастика, драма, мелодрама
Год выпуска: 2021
Продолжительность: 01:43:52-Перевод: Субтитры
Субтитры: русские, английские
Оригинальная аудиодорожка: английский-Режиссер:
Майк Кэхилл / Mike Cahill-В ролях:
Оуэн Уилсон, Сальма Хайек, Неста Купер, Хорхе Лендеборг мл., Ронни Чиэн, Стив Зиссис, Джошуа Леонард, Мадлен Зима, Билл Най, Славой Жижек-Описание:
Фантастическая драма о мужчине, который недавно пережил весь спектр жизненного негатива: развод, а затем увольнение. После всего этого он встречает странную женщину, которая считает, будто весь мир вокруг — компьютерная симуляция. Она рассказывает ему об этом настолько убедительно, что он сам начинает ей верить...-]
Качество видео: WEB-DLRip
Формат видео: AVI
Видео: 720x304 (2.37:1), 23.976 fps, XviD build 73 ~1615 kbps avg, 0.31 bit/pixel
Аудио: 48 kHz, AC3 Dolby Digital, 3/2 (L,C,R,l,r) + LFE ch, ~384 kbps-Сэмпл-

Пример субтитров

Код:
228
00:20:46,746 --> 00:20:50,416
Добро пожаловать в мой дом вдали от дома.
229
00:20:51,167 --> 00:20:54,796
А это моя Офелия. Всё хорошо, детка.
230
00:20:55,880 --> 00:20:59,926
Я не могу здесь жить. Ты бездомная?
231
00:21:00,969 --> 00:21:02,887
Это законно или...
232
00:21:04,222 --> 00:21:08,226
Спасибо тебе за помощь, но я лучше пойду.
233
00:21:08,309 --> 00:21:11,396
- И куда ты собрался?
- Домой.
234
00:21:11,479 --> 00:21:14,857
Ну, я живу в мотеле.
Так что вернусь в номер мотеля.
235
00:21:14,941 --> 00:21:17,777
Но у меня нет ключа,
ведь он в моём бумажнике.
236
00:21:17,860 --> 00:21:20,613
Так что я...
Нет, ведь и документы тоже там.
237
00:21:20,697 --> 00:21:26,119
И деньги. У меня ни документов, ни денег,
но, может, они меня вспомнят.
238
00:21:26,202 --> 00:21:30,623
- Надеюсь, вспомнят...
- Дружок, это ты бездомный.
239
00:21:32,667 --> 00:21:35,920
Я не иду домой,
потому что недавно развелся.
240
00:21:36,004 --> 00:21:40,008
Ну так побудь тут, пока всё не уляжется,
241
00:21:40,091 --> 00:21:43,469
а потом вернешь свой бумажник,
найдешь дом и жену,

MediaInfo

Код:
Формат : AVI
Формат/Информация : Audio Video Interleave
Размер файла : 1,46 Гбайт
Продолжительность : 1 ч. 43 м.
Общий поток : 2 009 Кбит/сек
Название фильма : Блаженство_2021_WEB-DLRip
Программа кодирования : VirtualDubMod 1.5.10.3 | www.virtualdub-fr.org || (build 2550/release)
Авторское право : порошков
Видео
Идентификатор : 0
Формат : MPEG-4 Visual
Профиль формата : Advanced Simple@L5
Настройки формата : BVOP1 / Custom Matrix
Параметр BVOP формата : 1
Параметр QPel формата : Нет
Параметр GMC формата : Без точки перехода
Параметр матрицы формата : Выборочная
Идентификатор кодека : XVID
Идентификатор кодека/Подсказка : XviD
Продолжительность : 1 ч. 43 м.
Битрейт : 1 615 Кбит/сек
Ширина : 720 пикселей
Высота : 304 пикселя
Соотношение сторон : 2,35:1
Частота кадров : 23,976 (24000/1001) кадра/сек
Цветовое пространство : YUV
Субдискретизация насыщенности : 4:2:0
Битовая глубина : 8 бит
Тип развёртки : Прогрессивная
Метод сжатия : С потерями
Бит/(Пиксели*Кадры) : 0.308
Размер потока : 1,17 Гбайт (80%)
Библиотека кодирования : XviD 73
Аудио
Идентификатор : 1
Формат : AC-3
Формат/Информация : Audio Coding 3
Коммерческое название : Dolby Digital
Идентификатор кодека : 2000
Продолжительность : 1 ч. 43 м.
Вид битрейта : Постоянный
Битрейт : 384 Кбит/сек
Каналы : 6 каналов
Channel layout : L R C LFE Ls Rs
Частота : 48,0 КГц
Частота кадров : 31,250 кадров/сек (1536 SPF)
Метод сжатия : С потерями
Размер потока : 285 Мбайт (19%)
Выравнивание : Разделение по промежуткам
Продолжительность промежутка : 42 мс. (1,00 видеокадр)
Время предзагрузки промежутка : 500 мс.
Service kind : Complete Main

Скриншоты


Профиль [ЛС]
Показать сообщения:    

Текущее время: 28-Фев 22:15

Часовой пояс: UTC ± 0



Вы не можете начинать темы
Вы не можете отвечать на сообщения
Вы не можете редактировать свои сообщения
Вы не можете удалять свои сообщения
Вы не можете голосовать в опросах
Вы не можете прикреплять файлы к сообщениям
Вы не можете скачивать файлы