Статистика раздачи
Нет
 
     
 
 

MAGNAT ®

Пол:
Мужской
Стаж:
1 год 11 месяцев
Сообщений:
9392

Палмер / Palmer- Год выхода: 2021
Страна: США
Жанр: драма
Продолжительность: 01:50:54
Перевод: Профессиональный (полное дублирование) Apple TV+
Субтитры: нет-Режиссер:
Фишер Стивенс / Fisher Stevens-В ролях:
Джастин Тимберлейк, Джуно Темпл, Джун Скуиб, Дин Уинтерс, Алиша Вейнрайт, Винн Эверетт, Райдер Аллен, Дж.Д. Эвермор, Джейк Бреннан, Джесси Бойд,Чармин Ли, Стэйси Дэвис, Стивен Луис Граш, Лэнс Э. Николс, Теодус Крэйн, Николас И. Парсонс-О фильме:
Выйдя из тюрьмы, бывшая звезда школьного американского футбола Эдди Палмер возвращается в родной городок. Парень надеется наладить свою жизнь, но сталкивается с проблемами прошлого и неожиданно становится наставником мальчика, которого оставила мать.-Качество: WEB-DLRp [APTV]
Формат: AVI
Видео: 720x304 (2.37:1), 23.976 fps, XviD build 69 ~1425 kbps avg, 0.27 bit/pixel
Аудио: 48 kHz, AC3 Dolby Digital, 3/2 (L,C,R,l,r) + LFE ch, ~448.00 kbps avg - Thx KinoPub-

Скриншоты

-

MediaInfo

Код:Общее
Полное имя : E:\Palmer_2021_WEB-DLRip_by_Dalemake.avi
Формат : AVI
Формат/Информация : Audio Video Interleave
Размер файла : 1,46 Гбайт
Продолжительность : 1 ч. 50 м.
Общий поток : 1 883 Кбит/сек
Программа кодирования : VirtualDubMod 1.5.10.3 | www.virtualdub-fr.org || (build 2550/release)
Библиотека кодирования : VirtualDubMod build 2550/release
Видео
Идентификатор : 0
Формат : MPEG-4 Visual
Профиль формата : Advanced Simple@L5
Настройки формата : BVOP1 / Custom Matrix
Параметр BVOP формата : 1
Параметр QPel формата : Нет
Параметр GMC формата : Без точки перехода
Параметр матрицы формата : Выборочная
Идентификатор кодека : XVID
Идентификатор кодека/Подсказка : XviD
Продолжительность : 1 ч. 50 м.
Битрейт : 1 425 Кбит/сек
Ширина : 720 пикселей
Высота : 304 пикселя
Соотношение сторон : 2,35:1
Частота кадров : 23,976 (24000/1001) кадра/сек
Цветовое пространство : YUV
Субдискретизация насыщенности : 4:2:0
Битовая глубина : 8 бит
Тип развёртки : Прогрессивная
Метод сжатия : С потерями
Бит/(Пиксели*Кадры) : 0.272
Размер потока : 1,10 Гбайт (76%)
Библиотека кодирования : XviD 69
Аудио
Идентификатор : 1
Формат : AC-3
Формат/Информация : Audio Coding 3
Коммерческое название : Dolby Digital
Идентификатор кодека : 2000
Продолжительность : 1 ч. 50 м.
Вид битрейта : Постоянный
Битрейт : 448 Кбит/сек
Каналы : 6 каналов
Channel layout : L R C LFE Ls Rs
Частота : 48,0 КГц
Частота кадров : 31,250 кадров/сек (1536 SPF)
Метод сжатия : С потерями
Размер потока : 355 Мбайт (24%)
Выравнивание : Разделение по промежуткам
Продолжительность промежутка : 42 мс. (1,00 видеокадр)
Время предзагрузки промежутка : 500 мс.
Service kind : Complete Main
-
Профиль [ЛС]
Показать сообщения:    

Текущее время: 28-Фев 22:47

Часовой пояс: UTC ± 0



Вы не можете начинать темы
Вы не можете отвечать на сообщения
Вы не можете редактировать свои сообщения
Вы не можете удалять свои сообщения
Вы не можете голосовать в опросах
Вы не можете прикреплять файлы к сообщениям
Вы не можете скачивать файлы