Статистика раздачи
Нет
 
     
 
 

MAGNAT ®

Пол:
Мужской
Стаж:
1 год 11 месяцев
Сообщений:
9392

Белый тигр / The White Tiger
Страна: Индия, США
Жанр: драма, криминал
Год выпуска: 2021
Продолжительность: 02:07:01-Перевод: Любительский (многоголосый закадровый) | HDRezka Studio
Субтитры: русские, английские
Оригинальная аудиодорожка: английский / хинди-Режиссер:
Рамин Бахрани / Ramin Bahrani-В ролях: Адарш Гурав, Раджкумар Рао, Приянка Чопра Джонас, Махеш Манджрекар, Перри Капернарос, Сваруп Самрат, Налниш Нил, Виджай Маурья, Камлеш Гилл, Ведант Синха, Аарон Ван, Трупти Кхамкар, Санкет Шанвар, Абхишек Кхандекар, Б. Шантану, Локеш Миттал-Описание: 2010 год. Через неделю китайский премьер нанесёт официальный визит в Индию, чтобы познакомится с местными предпринимателями, а пока Балрам пишет ему письмо о своей жизни. Парень рос в нищете без малейшей надежды на лучшее будущее и единственное, чего он всегда желал - устроиться слугой к состоятельному человеку. Когда из Америки вернулся сын местного богатея, Балрам сразу понял, что нашёл своего хозяина. Эта работа и близкое знакомство с сильными мира сего начинают менять мировоззрение наивного бедняка.-Качество видео: WEB-DLRip
Формат видео: AVI
Видео: 704x352 (2.00:1), 24.000 fps, XviD build 73 ~1615 kbps avg, 0.27 bit/pixel
Аудио 1: 48 kHz, AC3 Dolby Digital, 3/2 (L,C,R,l,r) + LFE ch, ~448 kbps | RUS
Аудио 2: 48 kHz, AC3 Dolby Digital, 3/2 (L,C,R,l,r) + LFE ch, ~384 kbps | ENG-Сэмпл-

MediaInfo

Код:
Формат : AVI
Формат/Информация : Audio Video Interleave
Профиль формата : OpenDML
Размер файла : 2,18 Гбайт
Продолжительность : 2 ч. 7 м.
Общий поток : 2 455 Кбит/сек
Название фильма : Белый тигр_2021_WEB-DLRip
Программа кодирования : VirtualDubMod 1.5.10.3 | www.virtualdub-fr.org || (build 2550/release)
Авторское право : порошков
Видео
Идентификатор : 0
Формат : MPEG-4 Visual
Профиль формата : Advanced Simple@L5
Настройки формата : BVOP1 / Custom Matrix
Параметр BVOP формата : 1
Параметр QPel формата : Нет
Параметр GMC формата : Без точки перехода
Параметр матрицы формата : Выборочная
Идентификатор кодека : XVID
Идентификатор кодека/Подсказка : XviD
Продолжительность : 2 ч. 7 м.
Битрейт : 1 605 Кбит/сек
Ширина : 704 пикселя
Высота : 352 пикселя
Соотношение сторон : 2,000
Частота кадров : 24,000 кадра/сек
Цветовое пространство : YUV
Субдискретизация насыщенности : 4:2:0
Битовая глубина : 8 бит
Тип развёртки : Прогрессивная
Метод сжатия : С потерями
Бит/(Пиксели*Кадры) : 0.270
Размер потока : 1,42 Гбайт (65%)
Библиотека кодирования : XviD 73
Аудио #1
Идентификатор : 1
Формат : AC-3
Формат/Информация : Audio Coding 3
Коммерческое название : Dolby Digital
Идентификатор кодека : 2000
Продолжительность : 2 ч. 7 м.
Вид битрейта : Постоянный
Битрейт : 448 Кбит/сек
Каналы : 6 каналов
Channel layout : L R C LFE Ls Rs
Частота : 48,0 КГц
Частота кадров : 31,250 кадров/сек (1536 SPF)
Метод сжатия : С потерями
Размер потока : 407 Мбайт (18%)
Выравнивание : Разделение по промежуткам
Продолжительность промежутка : 42 мс. (1,00 видеокадр)
Время предзагрузки промежутка : 500 мс.
Заголовок : rus
Service kind : Complete Main
Аудио #2
Идентификатор : 2
Формат : AC-3
Формат/Информация : Audio Coding 3
Коммерческое название : Dolby Digital
Идентификатор кодека : 2000
Продолжительность : 2 ч. 7 м.
Вид битрейта : Постоянный
Битрейт : 384 Кбит/сек
Каналы : 6 каналов
Channel layout : L R C LFE Ls Rs
Частота : 48,0 КГц
Частота кадров : 31,250 кадров/сек (1536 SPF)
Метод сжатия : С потерями
Размер потока : 349 Мбайт (16%)
Выравнивание : Разделение по промежуткам
Продолжительность промежутка : 42 мс. (1,00 видеокадр)
Время предзагрузки промежутка : 500 мс.
Заголовок : eng
Service kind : Complete Main

Скриншоты


Профиль [ЛС]
Показать сообщения:    

Текущее время: 28-Фев 21:38

Часовой пояс: UTC ± 0



Вы не можете начинать темы
Вы не можете отвечать на сообщения
Вы не можете редактировать свои сообщения
Вы не можете удалять свои сообщения
Вы не можете голосовать в опросах
Вы не можете прикреплять файлы к сообщениям
Вы не можете скачивать файлы