Статистика раздачи
Нет
 
     
 
 

MAGNAT ®

Пол:
Мужской
Стаж:
1 год 11 месяцев
Сообщений:
9392

Два отца / Um Pai no Meio do Caminho / Double Dad- Страна: Бразилия
Студия: A Fábrica, A Fabrica
Жанр: Драма, комедия, семейный
Год выпуска: 2021
Продолжительность: 01:45:15
Перевод: Профессиональный (дублированный) SDI Media по заказу Netflix
Субтитры: Русские (форсированные, полные) отдельно-Режиссер: Крис Д’Амато / Cris D'Amato-В ролях: Маиса Сильва, Эдуарду Московиш, Марселу Медичи, Фафа де Белем, Тайнара Оливейра Гомес-Описание: Пока мать за границей, 18-летняя девушка, которая всю жизнь прожила в коммуне хиппи, отправляется на поиски биологического отца.-Премьера в мире: 15 января 2021
Цифровой релиз: 15 января 2021-Качество видео: WEB-DLRip
Формат видео: AVI
Видео: 704x352 (2, 000:1), 24 fps, XviD ~ 1529 Kbps avg, 0.257 bit/pixel
Аудио: AC3, 48 kHz, 6 ch, ~448.00 kbps avg | русский | SDI Media
-

MediaInfo

Код:
General
Complete name : E:\Kino\Um.Pai.no.Meio.do.Caminho.2020.NF.WEB-DLRip.1.46Gb.MegaPeer\Um.Pai.no.Meio.do.Caminho.2020.NF.WEB-DLRip.1.46Gb.MegaPeer.avi
Format : AVI
Format/Info : Audio Video Interleave
File size : 1.46 GiB
Duration : 1 h 45 min
Overall bit rate : 1 987 kb/s
Writing application : VirtualDubModRus 1.5.10.2 (build 2542/release)
Writing library : VirtualDubMod build 2542/release
Video
ID : 0
Format : MPEG-4 Visual
Format profile : Advanced Simple@L5
Format settings : BVOP1 / Custom Matrix
Format settings, BVOP : 1
Format settings, QPel : No
Format settings, GMC : No warppoints
Format settings, Matrix : Custom
Codec ID : XVID
Codec ID/Hint : XviD
Duration : 1 h 45 min
Bit rate : 1 529 kb/s
Width : 704 pixels
Height : 352 pixels
Display aspect ratio : 2.000
Frame rate : 24.000 FPS
Color space : YUV
Chroma subsampling : 4:2:0
Bit depth : 8 bits
Scan type : Progressive
Compression mode : Lossy
Bits/(Pixel*Frame) : 0.257
Stream size : 1.12 GiB (77%)
Writing library : XviD 73
Audio
ID : 1
Format : AC-3
Format/Info : Audio Coding 3
Commercial name : Dolby Digital
Codec ID : 2000
Duration : 1 h 45 min
Bit rate mode : Constant
Bit rate : 448 kb/s
Channel(s) : 6 channels
Channel layout : L R C LFE Ls Rs
Sampling rate : 48.0 kHz
Frame rate : 31.250 FPS (1536 SPF)
Compression mode : Lossy
Stream size : 337 MiB (23%)
Alignment : Split across interleaves
Interleave, duration : 42 ms (1.00 video frame)
Interleave, preload duratio : 500 ms
Service kind : Complete Main

Скриншот c названием фильма

Скриншоты

Профиль [ЛС]
Показать сообщения:    

Текущее время: 28-Фев 21:12

Часовой пояс: UTC ± 0



Вы не можете начинать темы
Вы не можете отвечать на сообщения
Вы не можете редактировать свои сообщения
Вы не можете удалять свои сообщения
Вы не можете голосовать в опросах
Вы не можете прикреплять файлы к сообщениям
Вы не можете скачивать файлы