Статистика раздачи
Нет
 
     
 
 

MAGNAT ®

Пол:
Мужской
Стаж:
1 год 11 месяцев
Сообщений:
9392

Охана: В поисках сокровища / Finding 'Ohana- Страна: США
Студия: Ian Bryce Productions
Жанр: Боевик, комедия, приключения, семейный
Год выпуска: 2021
Продолжительность: 02:03:09
Перевод: Профессиональный (дублированный) SDI Media
Субтитры: Русские (форсированные, полные) отдельно
Оригинальная аудиодорожка: Нет-Режиссер: Джуд Вэн / Jude Weng-В ролях: Ке Хюи Куан, Келли Ху, Крис Парнелл, Оуэн Ваккаро, Марк Ивэн Джексон, Брэнском Ричмонд, Рики Гарсиа, Райан Хига, Икс Майо, Кайндра Санчес-Описание: Фильм рассказывает о брате и сестре из Бруклина, чье лето в сельском городке Оаху принимает захватывающий оборот, когда дневник, указывающий на давно потерянные сокровища, отправляет их в приключение, заставляя воссоединиться со своим Гавайским наследием.-Премьера в мире 29 января 2021
Цифровой релиз 29 января 2021 «Netflix»-Качество видео: WEB-DLRip
Формат видео: AVI
Видео: 688x384 (16:9), 24 fps, XviD ~ 1304 Kbps avg, 0.206 bit/pixel
Аудио: 48 kHz, AC3 Dolby Digital, 3/2 (L,C,R,l,r) + LFE ch, ~384 kbps |
-

MediaInfo

Код:
General
Complete name : E:\Kino\Finding.Ohana.2021.NF.WEB-DLRip.1.46Gb.MegaPeer\Finding.Ohana.2021.NF.WEB-DLRip.1.46Gb.MegaPeer.avi
Format : AVI
Format/Info : Audio Video Interleave
File size : 1.46 GiB
Duration : 2 h 3 min
Overall bit rate : 1 697 kb/s
Writing application : VirtualDubModRus 1.5.10.2 (build 2542/release)
Writing library : VirtualDubMod build 2542/release
Video
ID : 0
Format : MPEG-4 Visual
Format profile : Advanced Simple@L5
Format settings : BVOP1 / Custom Matrix
Format settings, BVOP : 1
Format settings, QPel : No
Format settings, GMC : No warppoints
Format settings, Matrix : Custom
Codec ID : XVID
Codec ID/Hint : XviD
Duration : 2 h 3 min
Bit rate : 1 304 kb/s
Width : 688 pixels
Height : 384 pixels
Display aspect ratio : 16:9
Frame rate : 24.000 FPS
Color space : YUV
Chroma subsampling : 4:2:0
Bit depth : 8 bits
Scan type : Progressive
Compression mode : Lossy
Bits/(Pixel*Frame) : 0.206
Stream size : 1.12 GiB (77%)
Writing library : XviD 73
Audio
ID : 1
Format : AC-3
Format/Info : Audio Coding 3
Commercial name : Dolby Digital
Codec ID : 2000
Duration : 2 h 3 min
Bit rate mode : Constant
Bit rate : 384 kb/s
Channel(s) : 6 channels
Channel layout : L R C LFE Ls Rs
Sampling rate : 48.0 kHz
Frame rate : 31.250 FPS (1536 SPF)
Compression mode : Lossy
Stream size : 338 MiB (23%)
Alignment : Split across interleaves
Interleave, duration : 42 ms (1.00 video frame)
Interleave, preload duratio : 500 ms
Service kind : Complete Main

Скриншот c названием фильма

Скриншоты

Профиль [ЛС]
Показать сообщения:    

Текущее время: 28-Фев 21:16

Часовой пояс: UTC ± 0



Вы не можете начинать темы
Вы не можете отвечать на сообщения
Вы не можете редактировать свои сообщения
Вы не можете удалять свои сообщения
Вы не можете голосовать в опросах
Вы не можете прикреплять файлы к сообщениям
Вы не можете скачивать файлы