Статистика раздачи
Нет
 
     
 
 

MAGNAT ®

Пол:
Мужской
Стаж:
1 год 11 месяцев
Сообщений:
9392

Смертельная зона / Outside the Wire
«Defiant by design»
- Страна: США, Венгрия
Студия: 42, Automatik Entertainment, Inspire Entertainment, Leeding Media, NetFlix, Pioneer Stilking Films
Жанр: Фантастика, фэнтези, боевик, приключения
Год выпуска: 2021
Продолжительность: 01:55:52
Перевод: Профессиональный (дублированный) VSI Moscow по заказу Netflix
Субтитры: Русские (форсированные, полные) отдельно-Режиссер: Микаэль Хофстрём / Mikael Håfström-В ролях: Энтони Маки, Демсон Идрис, Эмили Бичем, Пилу Асбек, Майкл Келли, Кристина Тонтери-Янг, Бобби Локвуд, Энцо Чиленти, Генри Гаррет, Велибор Топич-Описание: В будущем война ведётся с помощью пилотируемых дронов. Однажды пилот дрона вынужден отправиться в зону военных действий, где вместе с андроидом должен предотвратить ядерный взрыв.-Премьера в мире: 15 января 2021
Цифровой релиз: 15 января 2021-Качество видео: WEB-DLRip
Формат видео: AVI
Видео: 720x304 (2.35:1), 24 fps, XviD ~ 1347 Kbps avg, 0.256 bit/pixel
Аудио: AC3, 48 kHz, 6 ch, ~448.00 kbps avg | русский | VSI Moscow
-

MediaInfo

Код:
General
Complete name : D:\Фильмы\Outside.the.Wire.2021.WEB-DLRip.1.46Gb.MegaPeer.avi
Format : AVI
Format/Info : Audio Video Interleave
File size : 1.46 GiB
Duration : 1 h 55 min
Overall bit rate : 1 804 kb/s
Writing application : VirtualDubModRus 1.5.10.2 (build 2542/release)
Writing library : VirtualDubMod build 2542/release
Video
ID : 0
Format : MPEG-4 Visual
Format profile : Advanced Simple@L5
Format settings : BVOP1 / Custom Matrix
Format settings, BVOP : 1
Format settings, QPel : No
Format settings, GMC : No warppoints
Format settings, Matrix : Custom
Codec ID : XVID
Codec ID/Hint : XviD
Duration : 1 h 55 min
Bit rate : 1 347 kb/s
Width : 720 pixels
Height : 304 pixels
Display aspect ratio : 2.35:1
Frame rate : 24.000 FPS
Color space : YUV
Chroma subsampling : 4:2:0
Bit depth : 8 bits
Scan type : Progressive
Compression mode : Lossy
Bits/(Pixel*Frame) : 0.256
Stream size : 1.09 GiB (75%)
Writing library : XviD 73
Audio
ID : 1
Format : AC-3
Format/Info : Audio Coding 3
Commercial name : Dolby Digital
Codec ID : 2000
Duration : 1 h 55 min
Bit rate mode : Constant
Bit rate : 448 kb/s
Channel(s) : 6 channels
Channel layout : L R C LFE Ls Rs
Sampling rate : 48.0 kHz
Frame rate : 31.250 FPS (1536 SPF)
Compression mode : Lossy
Stream size : 371 MiB (25%)
Alignment : Split across interleaves
Interleave, duration : 42 ms (1.00 video frame)
Interleave, preload duratio : 500 ms
Service kind : Complete Main

Скриншот c названием фильма

Скриншоты

Профиль [ЛС]
Показать сообщения:    

Текущее время: 28-Фев 21:25

Часовой пояс: UTC ± 0



Вы не можете начинать темы
Вы не можете отвечать на сообщения
Вы не можете редактировать свои сообщения
Вы не можете удалять свои сообщения
Вы не можете голосовать в опросах
Вы не можете прикреплять файлы к сообщениям
Вы не можете скачивать файлы