Статистика раздачи
Размер:  17,96 GB   |    Зарегистрирован:  4 месяца 27 дней   |    Скачан:  0 раз

Полного источника не было: Никогда

 
   
 
 

DR_KTO ®

Пол:
Не указан
Стаж:
5 месяцев
Сообщений:
105

Навигатор Апгрейд выпуски 1-52, 54-104
Дата/Год выпуска: 2013
Страна: Россия
Жанр: Детская познавательная передача
Продолжительность: 00:26:00
Перевод: Не требуется
Режиссер: Юлия Королева
Телеканал: Карусель
Описание: «Навигатор. Апгрейд» покажет зрителям, как можно развлечься с пользой, сделать весёлым самое скучное занятие, научиться новому и применить эти знания на практике! «Навигатор. Апгрейд» — это программа о самых интересных событиях и вопросах, которые интересны молодежи. Юные любознательные ведущие обсуждают в студии актуальные темы современности: кинопремьеры, компьютерные новинки, виды спорта, модные музыкальные направления и многое другое. Сюжеты, снятые корреспондентами, поведают зрителям о театральных премьерах, выставках и путешествиях, а именитые гости программы будут развлекать аудиторию историями из собственной практики. Круг вопросов, затрагиваемых в проекте «Навигатор. Апгрейд», заслуживает внимания любого современного подростка. Ведущие: Алексей Ушаков и Николь Минаева, Андрей Калугин и Ангелина Римашевская, Леонид Болотников и Мария Литичевская, Валерий Шумский и Юлия Сорокина, Михаил Маневич и Варвара Ревнюк, Руслан Щедрин и Маргарита Дьяченкова, Иван Оранский и Александра Агабабова, Кристина Кучеренко, Софья Голубкова.
Доп. информация: В выпуске 56 периодически вырезаются куски.
Торрент обновлён. Добавлены выпуски 74-77, 79-82. 02.10.2015.
качество: WEBRip
формат: MP4
Видео: avc1, 640х480, 4:3, 780 Кбит/сек, 25,000 кадров/сек
Аудио: AAC, 62,7 Кбит/сек, 48,0 КГц, 2 канала

MediaInfo

Полное имя : C:\Раздавать\Навигатор Апгрейд\Навигатор Апгрейд 001. Дарья Мельникова.mp4
Формат : MPEG-4
Профиль формата : Base Media / Version 2
Идентификатор кодека : mp42
Размер файла : 158 Мбайт
Продолжительность : 26 м.
Режим общего битрейта : Переменный
Общий поток : 851 Кбит/сек
Дата кодирования : UTC 2013-03-20 13:08:25
Дата пометки : UTC 2013-03-20 13:08:25
Видео
Идентификатор : 1
Формат : AVC
Формат/Информация : Advanced Video Codec
Профиль формата : High@L3.0
Параметр CABAC формата : Да
Параметр ReFrames формата : 2 кадра
Идентификатор кодека : avc1
Идентификатор кодека/Информация : Advanced Video Coding
Продолжительность : 26 м.
Вид битрейта : Постоянный
Битрейт : 780 Кбит/сек
Ширина : 640 пикселей
Высота : 480 пикселей
Соотношение сторон : 4:3
Режим частоты кадров : Постоянный
Частота кадров : 25,000 кадров/сек
Цветовое пространство : YUV
Субдискретизация насыщенности : 4:2:0
Битовая глубина : 8 бит
Тип развёртки : Прогрессивная
Бит/(Пиксели*Кадры) : 0.102
Размер потока : 146 Мбайт (92%)
Язык : English
Дата кодирования : UTC 2013-03-20 13:08:25
Дата пометки : UTC 2013-03-20 13:08:25
Аудио
Идентификатор : 2
Формат : AAC
Формат/Информация : Advanced Audio Codec
Профиль формата : HE-AAC / LC
Идентификатор кодека : 40
Продолжительность : 26 м.
Вид битрейта : Переменный
Битрейт : 62,7 Кбит/сек
Максимальный битрейт : 80,4 Кбит/сек
Каналы : 2 канала
Расположение каналов : Front: L R
Частота : 48,0 КГц / 24,0 КГц
Метод сжатия : С потерями
Размер потока : 11,7 Мбайт (7%)
Язык : English
Дата кодирования : UTC 2013-03-20 13:08:25
Дата пометки : UTC 2013-03-20 13:08:25
[cybertorrent.ru].t2196.torrent 
Торрент: Зарегистрирован [ 2018-02-16 11:35 ] · F87862C6C2A6D07959B15D323F2535CF12232462

Скачать .torrent

Скачать

101 KB

Статус: проверено
Скачан: 0 раз
Размер: 17,96 GB
Профиль [ЛС]
Показать сообщения:    

Текущее время: 15-Июл 21:26

Часовой пояс: UTC ± 0



Вы не можете начинать темы
Вы не можете отвечать на сообщения
Вы не можете редактировать свои сообщения
Вы не можете удалять свои сообщения
Вы не можете голосовать в опросах
Вы не можете прикреплять файлы к сообщениям
Вы можете скачивать файлы