Статистика раздачи
Размер:  32,43 GB   |    Зарегистрирован:  9 месяцев 2 дня   |    Скачан:  0 раз

Полного источника не было: Никогда

 
   
 
 

DR_KTO ®

Пол:
Не указан
Стаж:
9 месяцев 3 дня
Сообщений:
105

Не зевай 115 выпусков
Дата/Год выпуска: 2005-2008
Страна: Россия
Жанр: детские новости
Продолжительность: 00:17:00
Перевод: Не требуется
Телеканал: Волга
Описание: Нижегородские детские новости. Уроки незевайства - для пользы, а не для зазнайства.
Доп. информация: Нумерация выпусков произвольная. В более новых выпусках сохранена очерёдность и есть дата выхода. В старых выпусках с кассет очерёдности и дат нет.
качество: TVRip
формат: AVI
Видео: XviD, 640х480, 4:3, 2198 Кбит/сек, 25,000 кадров/сек
Аудио: MP3, 128 Кбит/сек, 32,0 КГц, 2 канала

MediaInfo

Общее
Полное имя : G:\раздавать\Не зевай\Не Зевай 01.avi
Формат : AVI
Формат/Информация : Audio Video Interleave
Размер файла : 293 Мбайт
Продолжительность : 17 м.
Общий поток : 2336 Кбит/сек
Библиотека кодирования : VirtualDub build 15654/release
Видео
Идентификатор : 0
Формат : MPEG-4 Visual
Профиль формата : Simple@L3
Параметр BVOP формата : Нет
Параметр QPel формата : Нет
Параметр GMC формата : Без точки перехода
Параметр матрицы формата : Default (H.263)
Идентификатор кодека : XVID
Идентификатор кодека/Подсказка : XviD
Продолжительность : 17 м.
Битрейт : 2198 Кбит/сек
Ширина : 640 пикселей
Высота : 480 пикселей
Соотношение сторон : 4:3
Частота кадров : 25,000 кадров/сек
Цветовое пространство : YUV
Субдискретизация насыщенности : 4:2:0
Битовая глубина : 8 бит
Тип развёртки : Прогрессивная
Метод сжатия : С потерями
Бит/(Пиксели*Кадры) : 0.286
Размер потока : 276 Мбайт (94%)
Библиотека кодирования : XviD 1.2.1 (UTC 2008-12-04)
Аудио
Идентификатор : 1
Формат : MPEG Audio
Версия формата : Version 1
Профиль формата : Layer 3
Режим : Joint stereo
Расширение режима : MS Stereo
Идентификатор кодека : 55
Идентификатор кодека/Подсказка : MP3
Продолжительность : 17 м.
Вид битрейта : Постоянный
Битрейт : 128 Кбит/сек
Каналы : 2 канала
Частота : 32,0 КГц
Метод сжатия : С потерями
Размер потока : 16,1 Мбайт (5%)
Выравнивание : Разделение по промежуткам
Продолжительность промежутка : 40 мс. (1,00 видеокадр)
Время предзагрузки промежутка : 500 мс.
Библиотека кодирования : LAME3.96.1
[cybertorrent.ru].t2197.torrent 
Торрент: Зарегистрирован [ 2018-02-16 11:35 ] · 05FFD957D1D6A58C370F4F5DEC29CBE4F87473CA

Скачать .torrent

Скачать

171 KB

Статус: проверено
Скачан: 0 раз
Размер: 32,43 GB
Профиль [ЛС]
Показать сообщения:    

Текущее время: 18-Ноя 22:50

Часовой пояс: UTC ± 0



Вы не можете начинать темы
Вы не можете отвечать на сообщения
Вы не можете редактировать свои сообщения
Вы не можете удалять свои сообщения
Вы не можете голосовать в опросах
Вы не можете прикреплять файлы к сообщениям
Вы можете скачивать файлы
Torrents24.ru открытый BitTorrent Torrents24.pl открытый BitTorrent CyberTorrent.ru открытый BitTorrent BtList.ru рейтинг BitTorrent трекеров Яндекс.Метрика