Статистика раздачи
Размер:  1,37 GB   |    Зарегистрирован:  3 месяца 11 дней   |    Скачан:  0 раз

Полного источника не было: Никогда

 
   
 
 

lopster ®

Пол:
Не указан
Стаж:
3 месяца 11 дней
Сообщений:
612

Он, она и я
Год выпуска: 2006
Жанр: драма
Продолжительность: 01:26:54
Режиссер: Константин Худяков
В ролях: Александр Галибин, Иван Ургант, Екатерина Гусева, Юлия Рутберг, Юрий Беляев, Елена Бутенко
Описание: Бурлит карнавал жизни… Здесь правда и ложь перемешаны, но на пороге смерти срываются маски обнажаются чувства. Главный герой Дмитрий уходит из жизни, спокойный и за семью, и за созданную им бизнес-империю. Но только Маша может не перенести потери. И последняя воля Дмитрия круто меняет судьбу молодого человека Дениса, который случайно оказался рядом с ним в эти дни…
Все раздачи фильма: Он, она и я
Качество видео: DVDRip
Формат видео: AVI
Видео: 704x432 (1.63:1), 25 fps, XviD build 45 ~1801 kbps avg, 0.24 bit/pixel
Аудио: 48 kHz, AC3 Dolby Digital, 3/2 (L,C,R,l,r) + LFE ch, ~448.00 kbps avg

MI

Код:Общее
Полное имя : C:\otkat\Видео\Он она и я\on,ona.i.ay.2007.XviD.DVDRip-Same.avi
Формат : AVI
Формат/Информация : Audio Video Interleave
Размер файла : 1,37 Гбайт
Продолжительность : 1 ч. 26 м.
Общий поток : 2256 Кбит/сек
Программа кодирования : VirtualDubMod 1.5.4.1 (build 2178/release)
Библиотека кодирования : VirtualDubMod build 2178/release
Видео
Идентификатор : 0
Формат : MPEG-4 Visual
Профиль формата : Advanced Simple@L5
Параметр BVOP формата : 1
Параметр QPel формата : Нет
Параметр GMC формата : Без точки перехода
Параметр матрицы формата : Выборочная
Идентификатор кодека : XVID
Идентификатор кодека/Подсказка : XviD
Продолжительность : 1 ч. 26 м.
Битрейт : 1801 Кбит/сек
Ширина : 704 пикселя
Высота : 432 пикселя
Соотношение сторон : 16:10
Частота кадров : 25,000 кадров/сек
Цветовое пространство : YUV
Субдискретизация насыщенности : 4:2:0
Битовая глубина : 8 бит
Тип развёртки : Прогрессивная
Метод сжатия : С потерями
Бит/(Пиксели*Кадры) : 0.237
Размер потока : 1,09 Гбайт (80%)
Библиотека кодирования : XviD 1.2.0.dev45 (UTC 2006-07-10)
Аудио
Идентификатор : 1
Формат : AC-3
Формат/Информация : Audio Coding 3
Расширение режима : CM (complete main)
Параметр Endianness формата : Big
Идентификатор кодека : 2000
Продолжительность : 1 ч. 26 м.
Вид битрейта : Постоянный
Битрейт : 448 Кбит/сек
Каналы : 6 каналов
Расположение каналов : Front: L C R, Side: L R, LFE
Частота : 48,0 КГц
Частота кадров : 31,250 кадров/сек (1536 spf)
Метод сжатия : С потерями
Размер потока : 278 Мбайт (20%)
Выравнивание : Разделение по промежуткам
Продолжительность промежутка : 96 мс. (2,40 видеокадра)
Время предзагрузки промежутка : 96 мс.

Скриншоты

[cybertorrent.ru].t22.torrent 
Торрент: Зарегистрирован [ 2018-02-15 13:57 ] · 8433B1A4EFD0C98ABC1A51E147C343CC201834B2

Скачать .torrent

Скачать

14 KB

Статус: проверено
Скачан: 0 раз
Размер: 1,37 GB
Профиль [ЛС]
Показать сообщения:    

Текущее время: 27-Май 01:31

Часовой пояс: UTC ± 0



Вы не можете начинать темы
Вы не можете отвечать на сообщения
Вы не можете редактировать свои сообщения
Вы не можете удалять свои сообщения
Вы не можете голосовать в опросах
Вы не можете прикреплять файлы к сообщениям
Вы можете скачивать файлы