Статистика раздачи
Размер:  2,13 GB   |    Зарегистрирован:  3 месяца 12 дней   |    Скачан:  0 раз
Сидов:  2  [  0 KB/s  ]  
 
   
 
 

lopster ®

Пол:
Не указан
Стаж:
3 месяца 12 дней
Сообщений:
612

Притяжение
«Земля - землянам!»
Жанр: фантастика
Год выпуска: 2017
Продолжительность: 02:12:40
Режиссер: Фёдор Бондарчук
В ролях: Ирина Старшенбаум, Александр Петров, Риналь Мухаметов, Олег Меньшиков, Евгений Сангаджиев, Алексей Маслодудов, Никита Кукушкин, Евгений Михеев, Антон Шпиньков, Евгений Коряковский, Дарья Руденок, Людмила Максакова
Описание:
...Как только что стало известно, сбитый над Москвой неопознанный объект имеет, возможно, внеземное происхождение. Большая часть столичного Чертанова оцеплена, к месту крушения стягиваются представители силовых структур, решается вопрос об эвакуации местных жителей. По словам нашего источника в Минобороны, сейчас специальная комиссия пытается вступить в контакт с так называемыми «гостями». В эти минуты мы готовим экстренный выпуск новостей и о развитии событий вы узнаете первыми...


Автор рипа: stalkerok
Сэмпл
Качество видео: WEB-DLRip-AVC [Prityazhenie.2017.1080p.WEB-DL.Rus.HDCLUB]
Формат видео: MKV
Видео: 1914 Кбит/сек, 1032*430 (2,40:1), в 23,976 (24000/1001) кадра/сек, AVC
Аудио: русский, 384 Кбит/сек, 48 КГц, 16 бит, 5.1, AC3 [iTunes]
Навигация по главам: есть

x264/MediaInfo

x264 [info]: frame I:1745 Avg QP:16.76 size: 50689
x264 [info]: frame P:50609 Avg QP:18.36 size: 19682
x264 [info]: frame B:138513 Avg QP:21.26 size: 5919
Общее
Уникальный идентификатор : 182084283515688698823877237004554754063 (0x88FC284B88028995882C6B3CB30C580F)
Полное имя : M:\!!!!!!!!!!!!!!!!!!!\Prityazhenie.2017\Prityazhenie.2017.WEB-DLRip-AVC.RUS..stalkerok.new-team.mkv
Формат : Matroska
Версия формата : Version 4 / Version 2
Размер файла : 2,13 Гбайт
Продолжительность : 2 ч. 12 м.
Общий поток : 2300 Кбит/сек
Название фильма : Притяжение (2017) (Rip by stalkerok)
Дата кодирования : UTC 2017-02-28 12:12:53
Программа кодирования : mkvmerge v8.6.1 ('Flying') 64bit
Библиотека кодирования : libebml v1.3.3 + libmatroska v1.4.4
Видео
Идентификатор : 1
Формат : AVC
Формат/Информация : Advanced Video Codec
Профиль формата : High@L4.1
Параметр CABAC формата : Да
Параметр ReFrames формата : 12 кадров
Идентификатор кодека : V_MPEG4/ISO/AVC
Продолжительность : 2 ч. 12 м.
Битрейт : 1914 Кбит/сек
Ширина : 1032 пикселя
Высота : 430 пикселей
Соотношение сторон : 2,40:1
Режим частоты кадров : Постоянный
Частота кадров : 23,976 (24000/1001) кадра/сек
Цветовое пространство : YUV
Субдискретизация насыщенности : 4:2:0
Битовая глубина : 8 бит
Тип развёртки : Прогрессивная
Бит/(Пиксели*Кадры) : 0.180
Размер потока : 1,77 Гбайт (83%)
Заголовок : Притяжение (2017) (Rip by stalkerok)
Библиотека кодирования : x264 core 148 r2705+54 9f484c1 t_mod_Custom [8-bit@all X86_64]
Настройки программы : cabac=1 / ref=12 / deblock=1:-3:-2 / analyse=0x3:0x133 / me=umh / subme=10 / psy=1 / fade_compensate=0.00 / psy_rd=1.00:0.00 / mixed_ref=1 / me_range=32 / chroma_me=1 / trellis=2 / 8x8dct=1 / cqm=0 / deadzone=21,11 / fast_pskip=0 / chroma_qp_offset=-2 / threads=12 / lookahead_threads=3 / sliced_threads=0 / nr=0 / decimate=1 / interlaced=0 / bluray_compat=0 / constrained_intra=0 / fgo=0 / bframes=13 / b_pyramid=2 / b_adapt=2 / b_bias=0 / direct=3 / weightb=1 / open_gop=0 / weightp=2 / keyint=240 / keyint_min=23 / scenecut=40 / intra_refresh=0 / rc_lookahead=60 / rc=crf / mbtree=0 / crf=19.1500 / qcomp=0.65 / qpmin=0:0:0 / qpmax=69:69:69 / qpstep=4 / vbv_maxrate=50000 / vbv_bufsize=62500 / crf_max=0.0 / nal_hrd=none / filler=0 / ip_ratio=1.40 / pb_ratio=1.30 / aq=3:0.90 / aq-sensitivity=10.00 / aq-factor=1.00:1.00:1.00 / aq2=0 / aq3=0
Default : Да
Forced : Нет
Аудио
Идентификатор : 2
Формат : AC-3
Формат/Информация : Audio Coding 3
Расширение режима : CM (complete main)
Параметр Endianness формата : Big
Идентификатор кодека : A_AC3
Продолжительность : 2 ч. 12 м.
Вид битрейта : Постоянный
Битрейт : 384 Кбит/сек
Каналы : 6 каналов
Расположение каналов : Front: L C R, Side: L R, LFE
Частота : 48,0 КГц
Частота кадров : 31,250 кадров/сек (1536 spf)
Метод сжатия : С потерями
Размер потока : 364 Мбайт (17%)
Заголовок : AC3 5.1 @ 384 kbps
Язык : Russian
Default : Да
Forced : Нет
Меню
00:00:00.000 : en:1
00:08:20.458 : en:2
00:16:31.407 : en:3
00:23:21.608 : en:4
00:32:30.949 : en:5
00:39:22.068 : en:6
00:46:54.770 : en:7
00:53:36.254 : en:8
01:02:24.240 : en:9
01:09:37.339 : en:10
01:17:30.520 : en:11
01:26:37.984 : en:12
01:30:14.742 : en:13
01:38:56.138 : en:14
01:49:44.619 : en:15
01:59:57.315 : en:16

Скриншоты

[cybertorrent.ru].t220.torrent 
Торрент: Зарегистрирован [ 2018-02-15 15:34 ] · 6DB63BC87E8AD7E8A9007706D276654F93C62472

Скачать .torrent

Скачать

11 KB

Статус: проверено
Скачан: 0 раз
Размер: 2,13 GB
Профиль [ЛС]
Показать сообщения:    

Текущее время: 28-Май 08:06

Часовой пояс: UTC ± 0



Вы не можете начинать темы
Вы не можете отвечать на сообщения
Вы не можете редактировать свои сообщения
Вы не можете удалять свои сообщения
Вы не можете голосовать в опросах
Вы не можете прикреплять файлы к сообщениям
Вы можете скачивать файлы