Статистика раздачи
Размер:  5,94 GB   |    Зарегистрирован:  9 месяцев 2 дня   |    Скачан:  0 раз

Полного источника не было: Никогда

 
   
 
 

DR_KTO ®

Пол:
Не указан
Стаж:
9 месяцев 3 дня
Сообщений:
105

Симпсоны / The Simpsons
Страна: США
Жанр: мультсериал
Продолжительность: 22~00:22:00
Год выпуска: 2005
Перевод: Профессиональный (многоголосый закадровый 2Х2)
Русские субтитры: нет
Режиссёр: Мэтт Гроунинг / Matt Groening
Роли озвучивали: Дэн Кастелланета, Джули Кавнер, Нэнси Картрайт, Ярдли Смит, Хэнк Азария
Описание: Симпсоны живут в вымышленном городе Спрингфилд, со своим обществом и историей. Гомер - отец семейства, который дает плохие советы и работает инспектором безопасности на атомной электростанции; Мардж - любящая мать и жена, старается сохранить спокойствие в семье; Барт - 10 летний хулиган; Лиза - философский 8-летний ребенок; и Мэгги - младенец, который общается посредством соски.
Список серий:
01. Bonfire of the Manatees
02. The Girl Who Slept Too Little
03. Milhouse of Sand and Fog
04. Treehouse of Horror XVI
05. Marge's Son Poisoning
06. See Homer Run
07. The Last of the Red Hat Mamas
08. The Italian Bob
09. Simpsons Christmas Stories
10. Homer's Paternity Coot
11. We're on the Road to D'ohwhere
12. My Fair Laddy
13. The Seemingly Never-Ending Story
14. Bart Has Two Mommies
15. Homer Simpson, This Is Your Wife
16. Million Dollar Abie
17. Kiss Kiss, Bang Bangalore
18. The Wettest Stories Ever Told
19. Girls Just Want to Have Sums
20. Regarding Margie
21. The Monkey Suit
22. Marge and Homer Turn a Couple Play
Подобные и альтернативные раздачи
Семпл: http://multi-up.com/1034981
Качество: HDRip
Формат: AVI
Видео: XviD, 1200 Кбит/с, 720х544, 23.976 fps
Аудио: Русский AC3, 48 kHz, 2.0 ch, ~192.00 kbps
Аудио 2: Английский AC3, 48 kHz, 2.0 ch, ~192.00 kbps
Субтитры: отсутствуют

Подробные технические данные

S17E04.Treehouse of Horror XVI.avi
Format : AVI
Format/Info : Audio Video Interleave
File size : 287 MiB
Duration : 22mn 10s
Overall bit rate : 1 812 Kbps
Writing application : XviD4PSP 7.0 / 55.33.100
Video
ID : 0
Format : MPEG-4 Visual
Format profile : Advanced Simple@L5
Format settings, BVOP : 1
Format settings, QPel : No
Format settings, GMC : No warppoints
Format settings, Matrix : Default (H.263)
Codec ID : XVID
Codec ID/Hint : XviD
Duration : 22mn 10s
Bit rate : 1 411 Kbps
Width : 720 pixels
Height : 544 pixels
Display aspect ratio : 4:3
Frame rate : 23.976 fps
Color space : YUV
Chroma subsampling : 4:2:0
Bit depth : 8 bits
Scan type : Progressive
Compression mode : Lossy
Bits/(Pixel*Frame) : 0.150
Stream size : 224 MiB (78%)
Writing library : XviD 64
Audio #1
ID : 1
Format : AC-3
Format/Info : Audio Coding 3
Mode extension : CM (complete main)
Format settings, Endianness : Big
Codec ID : 2000
Duration : 22mn 10s
Bit rate mode : Constant
Bit rate : 192 Kbps
Channel(s) : 2 channels
Channel positions : Front: L R
Sampling rate : 48.0 KHz
Bit depth : 16 bits
Compression mode : Lossy
Stream size : 30.4 MiB (11%)
Alignment : Aligned on interleaves
Interleave, duration : 32 ms (0.77 video frame)
Title : 2X2
Audio #2
ID : 2
Format : AC-3
Format/Info : Audio Coding 3
Mode extension : CM (complete main)
Format settings, Endianness : Big
Codec ID : 2000
Duration : 22mn 10s
Bit rate mode : Constant
Bit rate : 192 Kbps
Channel(s) : 6 channels
Channel positions : Front: L C R, Side: L R, LFE
Sampling rate : 48.0 KHz
Bit depth : 16 bits
Compression mode : Lossy
Stream size : 30.4 MiB (11%)
Alignment : Aligned on interleaves
Interleave, duration : 32 ms (0.77 video frame)
Title : Original

Скриншоты

[cybertorrent.ru].t2205.torrent 
Торрент: Зарегистрирован [ 2018-02-16 11:35 ] · 1E642152339F6C25FE0BB6413EEE2B9A96117A56

Скачать .torrent

Скачать

17 KB

Статус: проверено
Скачан: 0 раз
Размер: 5,94 GB
Профиль [ЛС]
Показать сообщения:    

Текущее время: 18-Ноя 22:22

Часовой пояс: UTC ± 0



Вы не можете начинать темы
Вы не можете отвечать на сообщения
Вы не можете редактировать свои сообщения
Вы не можете удалять свои сообщения
Вы не можете голосовать в опросах
Вы не можете прикреплять файлы к сообщениям
Вы можете скачивать файлы
Torrents24.ru открытый BitTorrent Torrents24.pl открытый BitTorrent CyberTorrent.ru открытый BitTorrent BtList.ru рейтинг BitTorrent трекеров Яндекс.Метрика