Статистика раздачи
Размер:  2,91 GB   |    Зарегистрирован:  3 месяца 6 дней   |    Скачан:  0 раз

Полного источника не было: Никогда

 
   
 
 

lopster ®

Пол:
Не указан
Стаж:
3 месяца 6 дней
Сообщений:
612

Август. Восьмого / War Zone / FRA Transfer
-BDRip-AVC | BDRip-Жанр: драма, военный
Год выпуска: 2012
Продолжительность: 02:12:18
Режиссёр: Джаник Файзиев
В ролях: Светлана Иванова, Максим Матвеев, Егор Бероев, Артем Фадеев, Александр Олешко, Алексей Гуськов, Хасан Бароев, Владимир Вдовиченков, Гоша Куценко, Сергей Газаров, Анатолий Белый, Лидия Вележева, Владимир Зайцев, Константин Самоуков, Александр Петров, Анна Легчилова, Кирилл Плетнев, Александр Хошабаев, Валентин Варецкий, Руслан Пухов, Александр Дубина, Джаник Файзиев
Описание: Когда события нанизываются одно на другое, когда каждая минута ставит тебя перед выбором, когда жизнь и смерть становятся частью страшной компьютерной игры, пульт от которой — в чужих руках, тогда ты начинаешь действовать так, будто каждая минута — последняя. Казалось бы, жизнь хорошенькой разведенной москвички Ксении оставляет не много места для драматических ситуаций: да, сын Тёма тяжело переживает развод родителей, да, поклонник поглощен карьерой, да, мама вмешивается в личную жизнь, — но трудно назвать эти обстоятельства критическими. Всё меняется, когда бывший муж, офицер миротворческих сил, просит Ксению прислать Тёму к нему - подышать горным воздухом в прекрасной деревушке в доме его родителей. Он уверяет, что это совершенно безопасно, да маленький Тёма и не чувствует никакого страха - ведь рядом папа, добрый и непобедимый герой. Но наступает день, когда вражеские танки входят в город — и мир самых страшных игровых иллюзий мальчика становится реальностью...
Доп. информация: Сравнение с раздачей http://cybertorrent.ru/viewtopic.php?t=4053678 -> http://screenshotcomparison.com/comparison/202077
Сравнения сэмплов одного и тоже эпизода фильма -> RUS Transfer и FRA Transfer
Главное отличие от российского издания:
Цитата:
В фильме есть две сцены, где Президент обсуждает текущую ситуацию с министрами и советниками в просторной комнате со светлыми стенами. В альтернативном варианте действие происходит в большом зале, стилизованном под старинную палату Кремля, но при этом актёрский состав и реплики остаются прежними. Этих альтернативных сцен нет на российском издании и в данный момент они есть только в иностранных изданиях.
Сэмпл: http://multi-up.com/1143056
Качество видео: BDRip Исходник
Формат видео: MKV
Видео: MPEG-4 AVC/H.264 / 2700 kbps / 864x368 / 23.976 fps
Аудио: AC3 / 6 ch / 448 kbps / 48 kHz
Rip by: оно и видно

MediaInfo

General
Unique ID : 209487054635228974271060770565812172738 (0x9D99BD38D37A4747BAA44BBB87A4B7C2)
Complete name : J:\Torrents\Готовые релизы\August.8.2012.BDRip-AVC.OIV.mkv
Format : Matroska
Format version : Version 4 / Version 2
File size : 2.91 GiB
Duration : 2h 12mn
Overall bit rate : 3 149 Kbps
Encoded date : UTC 2017-01-18 08:02:51
Writing application : mkvmerge v9.7.1 ('Pandemonium') 64bit
Writing library : libebml v1.3.4 + libmatroska v1.4.5
Video
ID : 1
Format : AVC
Format/Info : Advanced Video Codec
Format profile : High@L4.1
Format settings, CABAC : Yes
Format settings, ReFrames : 9 frames
Codec ID : V_MPEG4/ISO/AVC
Duration : 2h 12mn
Bit rate : 2 700 Kbps
Width : 864 pixels
Height : 368 pixels
Display aspect ratio : 2.35:1
Frame rate mode : Constant
Frame rate : 23.976 (24000/1001) fps
Color space : YUV
Chroma subsampling : 4:2:0
Bit depth : 8 bits
Scan type : Progressive
Bits/(Pixel*Frame) : 0.354
Stream size : 2.49 GiB (86%)
Writing library : x264 core 146 r2538 121396c
Encoding settings : cabac=1 / ref=9 / deblock=1:-3:-2 / analyse=0x3:0x113 / me=umh / subme=10 / psy=1 / psy_rd=1.00:0.00 / mixed_ref=1 / me_range=32 / chroma_me=1 / trellis=2 / 8x8dct=1 / cqm=0 / deadzone=21,11 / fast_pskip=1 / chroma_qp_offset=-2 / threads=6 / lookahead_threads=1 / sliced_threads=0 / nr=0 / decimate=1 / interlaced=0 / bluray_compat=0 / constrained_intra=0 / bframes=11 / b_pyramid=2 / b_adapt=2 / b_bias=0 / direct=1 / weightb=1 / open_gop=0 / weightp=2 / keyint=250 / keyint_min=23 / scenecut=40 / intra_refresh=0 / rc_lookahead=50 / rc=2pass / mbtree=1 / bitrate=2700 / ratetol=1.0 / qcomp=0.60 / qpmin=0 / qpmax=69 / qpstep=4 / cplxblur=20.0 / qblur=0.5 / ip_ratio=1.40 / aq=3:1.00
Language : English
Default : Yes
Forced : No
Audio
ID : 2
Format : AC-3
Format/Info : Audio Coding 3
Mode extension : CM (complete main)
Format settings, Endianness : Big
Codec ID : A_AC3
Duration : 2h 12mn
Bit rate mode : Constant
Bit rate : 448 Kbps
Channel(s) : 6 channels
Channel positions : Front: L C R, Side: L R, LFE
Sampling rate : 48.0 KHz
Frame rate : 31.250 fps (1536 spf)
Compression mode : Lossy
Stream size : 424 MiB (14%)
Language : Russian
Default : Yes
Forced : No

Скриншот c названием фильма

Скриншоты

[cybertorrent.ru].t221.torrent 
Торрент: Зарегистрирован [ 2018-02-15 15:34 ] · 5321F1A4A12799B325E8B8EDF96E39AE69BE7B95

Скачать .torrent

Скачать

15 KB

Статус: проверено
Скачан: 0 раз
Размер: 2,91 GB
Профиль [ЛС]
Показать сообщения:    

Текущее время: 21-Май 18:59

Часовой пояс: UTC ± 0



Вы не можете начинать темы
Вы не можете отвечать на сообщения
Вы не можете редактировать свои сообщения
Вы не можете удалять свои сообщения
Вы не можете голосовать в опросах
Вы не можете прикреплять файлы к сообщениям
Вы можете скачивать файлы