Статистика раздачи
Размер:  1,54 GB   |    Зарегистрирован:  9 месяцев 2 дня   |    Скачан:  0 раз

Полного источника не было: Никогда

 
   
 
 

kex ®

Пол:
Не указан
Стаж:
9 месяцев 3 дня
Сообщений:
688

С наступающим Новым 2018 Годом!
-Шрек / Shrek
Год выпуска: 2001
Страна: США
Жанр: мультфильм, фэнтези, комедия, приключения
Продолжительность: 01:30:05
Перевод: Профессиональный (многоголосый закадровый)
Перевод 2: Авторский (одноголосый закадровый) - Андрей Дольский
Перевод 3: Авторский (одноголосый закадровый) - Юрий Живов
Русские субтитры: нет
Режиссёр: Эндрю Адамсон / Andrew Adamson, Вики Дженсон / Vicky Jenson
Роли озвучивали: Майк Майерс (Shrek), Эдди Мёрфи (Donkey), Кэмерон Диаз (Princess Fiona), Джон Литгоу (Lord Farquaad), Венсан Кассель (Monsieur Hood), Питер Деннис (Ogre Hunter), Клайв Пирс (Ogre Hunter), Джим Каммингс (Captain of Guards), Бобби Блок (Baby Bear), Крис Миллер (Geppetto / Magic Mirror)-Мировая премьера: 22 апреля 2001-Описание: Жил да был в сказочном государстве большой зеленый великан по имени Шрек. Жил он в гордом одиночестве в лесу, на болоте, которое считал своим. Но однажды злобный коротышка — лорд Фаркуад, правитель волшебного королевства, безжалостно согнал на Шреково болото всех сказочных обитателей. И беспечной жизни зеленого великана пришел конец. Но лорд Фаркуад пообещал вернуть Шреку болото, если великан добудет ему прекрасную принцессу Фиону, которая томится в неприступной башне, охраняемой огнедышащим драконом…-Видеоряд: из Гуртома.-Огромная благодарность:
RoxMarty - личная оцифровка звука со своей видеокассеты.
duckling-by2 - личная оцифровка перевода Дольского со своей видеокассеты.
sliva1234 - личная оцифровка перевода Живова со своей видеокассеты.
JUSTKANT - синхронизация всех переводов.-ДАННЫЕ ПЕРЕВОДЫ НА ТРЕКЕРЕ ПОЯВЛЯЮТСЯ ВПЕРВЫЕ!.
На русский язык фильм озвучен НЕ по заказу Премьер Видео Фильм.
Текст читают Андрей Градов, Ирина Маликова и Борис Быстров-НО ЭТО НЕ ТОЧНО!.-
Рейтинг

MPAA: PG - Рекомендуется присутствие родителей.-Качество: BDRip
Формат: AVI -> //Сэмпл//
Видео: XviD, 720x400 (16:9), 23.976 fps, 1852 kbps avg
Аудио:
1 - 48 khz, AC3 Dolby Digital, 2/0 (L,R) ch, ~192 kbps [MVO] VHSRip
2 - 48 khz, AC3 Dolby Digital, 2/0 (L,R) ch, ~192 kbps [Дольский] VHSRip
3 - 48 khz, AC3 Dolby Digital, 2/0 (L,R) ch, ~192 kbps [Живов] VHSRip (отдельно)-Обновление релиза от 18.12.2017. Причина:
Добавлен в раздачу ещё один раритетный для трекера многоголосый перевод.
Просьба перескачать торрент!

Подробные технические данные

General
Complete name : D:\Шрек (Премьер Видео Фильм + Дольский + Живов)\Шрек (Премьер Видео Фильм + Дольский).avi
Format : AVI
Format/Info : Audio Video Interleave
File size : 1.42 GiB
Duration : 1 h 30 min
Overall bit rate : 2 250 kb/s
Movie name : Шрек / Shrek (Премьер Видео Фильм + Дольский + Живов)
Director : JUSTKANT
Writing application : VirtualDubMod 1.5.10.3 (build 2550/release)
Copyright : Качество звука: Премьер Видео Фильм - VHSRip (RoxMarty), Дольский - VHSRip (duckling-by2) и Живов - VHSRip (sliva1234)
Video
ID : 0
Format : MPEG-4 Visual
Format profile : Advanced Simple@L5
Format settings : BVOP1
Format settings, BVOP : 1
Format settings, QPel : No
Format settings, GMC : No warppoints
Format settings, Matrix : Default (MPEG)
Codec ID : XVID
Codec ID/Hint : XviD
Duration : 1 h 30 min
Bit rate : 1 852 kb/s
Width : 720 pixels
Height : 400 pixels
Display aspect ratio : 16:9
Frame rate : 23.976 (24000/1001) FPS
Color space : YUV
Chroma subsampling : 4:2:0
Bit depth : 8 bits
Scan type : Progressive
Compression mode : Lossy
Bits/(Pixel*Frame) : 0.268
Stream size : 1.17 GiB (82%)
Writing library : XviD 1.2.1 (UTC 2008-12-04)
Audio #1
ID : 1
Format : AC-3
Format/Info : Audio Coding 3
Codec ID : 2000
Duration : 1 h 30 min
Bit rate mode : Constant
Bit rate : 192 kb/s
Channel(s) : 2 channels
Channel positions : Front: L R
Sampling rate : 48.0 kHz
Frame rate : 31.250 FPS (1536 SPF)
Bit depth : 16 bits
Compression mode : Lossy
Stream size : 124 MiB (9%)
Alignment : Split accross interleaves
Interleave, duration : 42 ms (1.00 video frame)
Interleave, preload duratio : 500 ms
Title : Премьер Видео Фильм: Андрей Градов, Борис Быстров и Ирина Маликова
Service kind : Complete Main
Audio #2
ID : 2
Format : AC-3
Format/Info : Audio Coding 3
Codec ID : 2000
Duration : 1 h 30 min
Bit rate mode : Constant
Bit rate : 192 kb/s
Channel(s) : 2 channels
Channel positions : Front: L R
Sampling rate : 48.0 kHz
Frame rate : 31.250 FPS (1536 SPF)
Bit depth : 16 bits
Compression mode : Lossy
Stream size : 124 MiB (9%)
Alignment : Split accross interleaves
Interleave, duration : 42 ms (1.00 video frame)
Interleave, preload duratio : 500 ms
Title : Андрей Дольский (VHSRip)
Service kind : Complete Main

Скриншоты

[cybertorrent.ru].t2219.torrent 
Торрент: Зарегистрирован [ 2018-02-16 11:35 ] · 003911BE06D304A3783F77030FF7CD4C6D980948

Скачать .torrent

Скачать

16 KB

Статус: проверено
Скачан: 0 раз
Размер: 1,54 GB
Профиль [ЛС]
Показать сообщения:    

Текущее время: 18-Ноя 23:00

Часовой пояс: UTC ± 0



Вы не можете начинать темы
Вы не можете отвечать на сообщения
Вы не можете редактировать свои сообщения
Вы не можете удалять свои сообщения
Вы не можете голосовать в опросах
Вы не можете прикреплять файлы к сообщениям
Вы можете скачивать файлы
Torrents24.ru открытый BitTorrent Torrents24.pl открытый BitTorrent CyberTorrent.ru открытый BitTorrent BtList.ru рейтинг BitTorrent трекеров Яндекс.Метрика