Статистика раздачи
Размер:  1,46 GB   |    Зарегистрирован:  3 месяца 6 дней   |    Скачан:  0 раз

Полного источника не было: Никогда

 
   
 
 

lopster ®

Пол:
Не указан
Стаж:
3 месяца 6 дней
Сообщений:
612

Рай- Год выпуска: 2016
Выпущено: Россия, Германия / DRIFE Productions
Жанр: драма, история
Продолжительность: 02:06:17-Режиссёр:
Андрей Кончаловский-В ролях:
Юлия Высоцкая, Петер Курт, Виктор Сухоруков, Филипп Дюкен, Жан Денис Рёмер, Георг Ленц, Рамона Либноу, Ирина Журавкина, Кристиан Клаус, Якоб Диль-Описание:
Ольга, русская аристократка, эмигрантка и участница французского Сопротивления, во время неожиданной проверки арестована нацистами за то, что прячет еврейских детей. В тюрьме ею увлекается Жюль, француз-коллаборационист, который ведет ее дело и в обмен на интимные отношения, кажется, готов смягчить ее участь. Ольга готова на все, чтобы избежать пыток, но ее надежда на свободу быстро рассеивается, так как события принимают неожиданный поворот.
Ольгу отправляют в концентрационный лагерь, где ее жизнь становится адом. Там неожиданно для себя она встречает Хельмута, высокопоставленного немецкого офицера СС, который когда-то был безнадежно влюблён в нее и до сих пор ее любит. Между ними завязываются странные, болезненные отношения. Хельмут решает бежать с Ольгой, хотя она уже перестала надеяться на спасение. Однако постепенно представление Ольги о Рае неотвратимо меняется.-Релиз групп | | КиноПоиск | Сэмпл |-Качество: WEB-DLRip [1080p.WEB-DL]
Формат: AVI
Видео: 688x512 (1.34:1), 25 fps, XviD build 67 ~1450 kbps avg, 0.16 bit/pixel
Аудио: 48 kHz, AC3 Dolby Digital, 2/0 (L,R) ch, ~192 kbps avg - iTunes Russia-

Скриншоты

-

MediaInfo

Код:Общее
Полное имя : D:\Rai_2016_WEB-DLRip_by_Dalemake.avi
Формат : AVI
Формат/Информация : Audio Video Interleave
Размер файла : 1,46 Гбайт
Продолжительность : 2 ч. 6 м.
Общий поток : 1653 Кбит/сек
Программа кодирования : VirtualDubMod 1.5.10.3 | www.virtualdub-fr.org || (build 2550/release)
Библиотека кодирования : VirtualDubMod build 2550/release
Видео
Идентификатор : 0
Формат : MPEG-4 Visual
Профиль формата : Advanced Simple@L5
Параметр BVOP формата : 1
Параметр QPel формата : Нет
Параметр GMC формата : Без точки перехода
Параметр матрицы формата : Выборочная
Идентификатор кодека : XVID
Идентификатор кодека/Подсказка : XviD
Продолжительность : 2 ч. 6 м.
Битрейт : 1451 Кбит/сек
Ширина : 688 пикселей
Высота : 512 пикселей
Соотношение сторон : 4:3
Частота кадров : 25,000 кадров/сек
Цветовое пространство : YUV
Субдискретизация насыщенности : 4:2:0
Битовая глубина : 8 бит
Тип развёртки : Прогрессивная
Метод сжатия : С потерями
Бит/(Пиксели*Кадры) : 0.165
Размер потока : 1,28 Гбайт (88%)
Библиотека кодирования : XviD 67
Аудио
Идентификатор : 1
Формат : AC-3
Формат/Информация : Audio Coding 3
Расширение режима : CM (complete main)
Параметр Endianness формата : Big
Идентификатор кодека : 2000
Продолжительность : 2 ч. 6 м.
Вид битрейта : Постоянный
Битрейт : 192 Кбит/сек
Каналы : 2 канала
Расположение каналов : Front: L R
Частота : 48,0 КГц
Битовая глубина : 16 бит
Метод сжатия : С потерями
Размер потока : 173 Мбайт (12%)
Выравнивание : Разделение по промежуткам
Продолжительность промежутка : 40 мс. (1,00 видеокадр)
Время предзагрузки промежутка : 500 мс.
-
[cybertorrent.ru].t222.torrent 
Торрент: Зарегистрирован [ 2018-02-15 15:34 ] · E5E86078AFDFFC9231622788787A4107C1B0B1AF

Скачать .torrent

Скачать

15 KB

Статус: проверено
Скачан: 0 раз
Размер: 1,46 GB
Профиль [ЛС]
Показать сообщения:    

Текущее время: 22-Май 00:10

Часовой пояс: UTC ± 0



Вы не можете начинать темы
Вы не можете отвечать на сообщения
Вы не можете редактировать свои сообщения
Вы не можете удалять свои сообщения
Вы не можете голосовать в опросах
Вы не можете прикреплять файлы к сообщениям
Вы можете скачивать файлы