Статистика раздачи
Размер:  1,83 GB   |    Зарегистрирован:  7 месяцев 4 дня   |    Скачан:  0 раз

Полного источника не было: Никогда

 
   
 
 

deltacatsplus ®

Пол:
Не указан
Стаж:
7 месяцев 5 дней
Сообщений:
202

Новогодняя ночь в цирке
Дата/Год выпуска: 2010
Жанр: Цирковое шоу
Продолжительность: 01:34:00
Перевод: Не требуется
Режиссер: Евгений Гинсбург, Владислав Сташинский
Телеканал: Культура
Описание: везды мировой сцены – Денис Мацуев и ансамбль Игоря Моисеева, солисты оперы Ольга Гурякова, Даниил Штода, Ахмед Агади, Карина Сербина, Любовь Казарновская, солисты балета – Мария Александрова, Николай Цискаридзе, солисты оперетты – Юрий Веденеев и Герард Васильев, драматические актрисы – Юлия Рутберг и Екатерина Гусева, а также ведущие мастера цирка - все они на арене цирка в самых головокружительных трюках.
Представление проходит в атмосфере новогоднего маскарада. На манеже появляются дрессированные медведи, обезьяны, козы, собаки. Музыкальные номера в соединении с цирковыми становятся забавными ироничными и праздничными.
Сэмпл: http://sendfile.su/1094732
Доп. информация:
Данное видео представляет собой прямую запись вещания канала "Культура" мультиплекса РТРС-1 в стандарте DVB-T2. Монтаж программой VideoReDo TVSuite H.264 v4.21.6.674, ремукс MKVMerge
Если вы испытываете какие-либо проблемы с его просмотром на компьютере (включая "эффект расчески" или низкое качество видео в сравнении со скриншотами), то можете использовать портативную версию VLC плеера как наиболее универсальное средство их решения. Бытовые плееры, поддерживающие mkv-формат, не должны иметь каких-либо сложностей.
Качество видео: DVB-AVC
Формат/Контейнер: MKV
Видео кодек: H.264
Аудио кодек: MP2
Видео поток: 720x576 (4:3) 50fps ~2500kbps
Аудио поток: 48000Hz 2ch mono 192kbps

MediaInfo

Format : Matroska
Format version : Version 4 / Version 2
File size : 1.83 GiB
Duration : 1h 33mn
Overall bit rate : 2 784 Kbps
Encoded date : UTC 2015-03-11 07:58:16
Writing application : mkvmerge v6.1.0 ('Old Devil') built on Mar 4 2013 09:10:42
Writing library : libebml v1.3.0 + libmatroska v1.4.0
Video
ID : 1
Format : AVC
Format/Info : Advanced Video Codec
Format profile : Main@L3.0
Format settings, CABAC : Yes
Format settings, ReFrames : 3 frames
Codec ID : V_MPEG4/ISO/AVC
Duration : 1h 33mn
Bit rate : 2 537 Kbps
Width : 720 pixels
Height : 576 pixels
Display aspect ratio : 4:3
Original display aspect ratio : 4:3
Frame rate mode : Constant
Frame rate : 25.000 fps
Standard : Component
Color space : YUV
Chroma subsampling : 4:2:0
Bit depth : 8 bits
Scan type : Interlaced
Bits/(Pixel*Frame) : 0.245
Stream size : 1.67 GiB (91%)
Default : Yes
Forced : No
Audio
ID : 2
Format : MPEG Audio
Format version : Version 1
Format profile : Layer 2
Codec ID : A_MPEG/L2
Codec ID/Hint : MP2
Duration : 1h 33mn
Bit rate mode : Constant
Bit rate : 192 Kbps
Channel(s) : 2 channels
Sampling rate : 48.0 KHz
Compression mode : Lossy
Stream size : 129 MiB (7%)
Language : English
Default : Yes
Forced : No

Скриншоты

[cybertorrent.ru].t2231.torrent 
Торрент: Зарегистрирован [ 2018-02-16 11:35 ] · CD54874BA86A350269A3016F912039AC4F24FF82

Скачать .torrent

Скачать

19 KB

Статус: проверено
Скачан: 0 раз
Размер: 1,83 GB
Профиль [ЛС]
Показать сообщения:    

Текущее время: 20-Сен 14:38

Часовой пояс: UTC ± 0



Вы не можете начинать темы
Вы не можете отвечать на сообщения
Вы не можете редактировать свои сообщения
Вы не можете удалять свои сообщения
Вы не можете голосовать в опросах
Вы не можете прикреплять файлы к сообщениям
Вы можете скачивать файлы
Torrents24.ru открытый BitTorrent Torrents24.pl открытый BitTorrent CyberTorrent.ru открытый BitTorrent BtList.ru рейтинг BitTorrent трекеров Яндекс.Метрика