Статистика раздачи
Размер:  1,45 GB   |    Зарегистрирован:  3 месяца 6 дней   |    Скачан:  0 раз

Полного источника не было: Никогда

 
   
 
 

lopster ®

Пол:
Не указан
Стаж:
3 месяца 6 дней
Сообщений:
612

Рай- Год выпуска: 2016
Страна: Россия, Германия
Жанр: драма, история-Продолжительность: 02:06:17
Режиссёр: Андрей Кончаловский
В ролях: Юлия Высоцкая, Петер Курт, Виктор Сухоруков, Филипп Дюкен, Жан Денис Рёмер, Георг Ленц, Рамона Либноу, Ирина Журавкина, Кристиан Клаус, Якоб Диль и др.-Описание: События в фильме разворачиваются в годы Второй мировой войны. В оккупированной немцами Франции в руки фашистов попадает эмигрантка из России Ольга. Она укрывала еврейских детей и за это ей теперь грозят ежедневные пытки и в конечном итоге смерть. Облегчить ее страдания может француз Жюль, который в обмен на интим предлагает ей всяческие поблажки. Вскоре Ольгу отправляют в концлагерь, где она встречает Хельмута – офицера СС. Когда-то давно он был влюблен в нее и до сих пор хранит к ней теплые чувства. Хельмут становится для Ольги последним шансом на спасение.-КиноПоиск | IMDb | Sample-Качество: WEB-DLRip-AVC (Источник: PaY.2O16.O.WEB-DL.1O8Op)
Формат: MKV
Видео: x264, 872x654 (4:3), 25 fps, ~1460 Kbps avg, 0.102 bit/pixel
Аудио: Russian 48.0 KHz, AC3, 2 (front: L,R) ch, ~192.00 kbps avg-

Релиз


Рип - whip93.

Сравнения с исходником

Source vs. Encode


MediaInfo | x264 log

x264 log

---[Information] [02.03.2017 20:00:58] raw [info]: 872x654p 1:1 @ 25/1 fps (cfr)
---[Information] [02.03.2017 20:00:58] x264 [info]: using SAR=1/1
---[Information] [02.03.2017 20:00:58] x264 [info]: using cpu capabilities: MMX2 SSE2Fast SSSE3 SSE4.2 AVX
---[Information] [02.03.2017 20:00:58] x264 [info]: profile High, level 4.1
---[Information] [03.03.2017 1:59:33] x264 [info]: frame I:967 Avg QP:14.53 size: 59326
---[Information] [03.03.2017 1:59:33] x264 [info]: frame P:44819 Avg QP:17.66 size: 14203
---[Information] [03.03.2017 1:59:33] x264 [info]: frame B:143650 Avg QP:19.98 size: 4737
---[Information] [03.03.2017 1:59:33] x264 [info]: consecutive B-frames: 1.1% 2.4% 5.0% 56.9% 12.5% 19.3% 0.7% 0.8% 0.1% 0.1% 0.1% 0.1% 0.1% 0.7%
---[Information] [03.03.2017 1:59:33] x264 [info]: mb I I16..4: 9.1% 69.1% 21.8%
---[Information] [03.03.2017 1:59:33] x264 [info]: mb P I16..4: 0.2% 3.7% 0.5% P16..4: 33.8% 33.9% 10.2% 1.2% 0.2% skip:16.3%
---[Information] [03.03.2017 1:59:33] x264 [info]: mb B I16..4: 0.0% 0.6% 0.1% B16..8: 32.5% 13.0% 1.6% direct: 2.8% skip:49.4% L0:44.6% L1:47.8% BI: 7.7%
---[Information] [03.03.2017 1:59:33] x264 [info]: 8x8 transform intra:81.1% inter:59.4%
---[Information] [03.03.2017 1:59:33] x264 [info]: coded y,uvDC,uvAC intra: 89.2% 0.9% 0.8% inter: 14.8% 0.0% 0.0%
---[Information] [03.03.2017 1:59:33] x264 [info]: i16 v,h,dc,p: 29% 18% 5% 48%
---[Information] [03.03.2017 1:59:33] x264 [info]: i8 v,h,dc,ddl,ddr,vr,hd,vl,hu: 12% 10% 5% 9% 13% 13% 13% 13% 13%
---[Information] [03.03.2017 1:59:33] x264 [info]: i4 v,h,dc,ddl,ddr,vr,hd,vl,hu: 15% 12% 7% 7% 13% 13% 12% 10% 11%
---[Information] [03.03.2017 1:59:33] x264 [info]: i8c dc,h,v,p: 42% 56% 0% 1%
---[Information] [03.03.2017 1:59:33] x264 [info]: Weighted P-Frames: Y:2.4% UV:0.0%
---[Information] [03.03.2017 1:59:33] x264 [info]: ref P L0: 45.5% 6.7% 17.1% 6.2% 5.5% 4.9% 4.3% 2.1% 2.0% 1.9% 1.8% 1.9% 0.1% 0.0%
---[Information] [03.03.2017 1:59:33] x264 [info]: ref B L0: 60.4% 12.2% 8.0% 4.1% 3.7% 3.5% 3.1% 1.7% 1.7% 1.0% 0.5%
---[Information] [03.03.2017 1:59:33] x264 [info]: ref B L1: 91.6% 8.4%
---[Information] [03.03.2017 1:59:33] x264 [info]: kb/s:1451.03
---[Information] [03.03.2017 1:59:33] encoded 189436 frames, 8.81 fps, 1451.03 kb/s
General
Unique ID : 191066719382251820118027139687513888794 (0x8FBE1C935A14818DB684E24FF52C981A)
Complete name : H:\Рай.2016.WEB-DLRip.DD2.0.x264.-whip93.mkv
Format : Matroska
Format version : Version 4 / Version 2
File size : 1.45 GiB
Duration : 2h 6mn
Overall bit rate : 1 645 Kbps
Movie name : Рай (2016) - Release by whip93
Encoded date : UTC 2017-03-03 05:02:04
Writing application : mkvmerge v6.1.0 ('Old Devil') built on Mar 4 2013 09:10:42
Writing library : libebml v1.3.0 + libmatroska v1.4.0
Attachements : cover.jpg
Video
ID : 1
Format : AVC
Format/Info : Advanced Video Codec
Format profile : High@L4.1
Format settings, CABAC : Yes
Format settings, ReFrames : 12 frames
Codec ID : V_MPEG4/ISO/AVC
Duration : 2h 6mn
Bit rate : 1 460 Kbps
Width : 872 pixels
Height : 654 pixels
Display aspect ratio : 4:3
Frame rate mode : Constant
Frame rate : 25.000 fps
Color space : YUV
Chroma subsampling : 4:2:0
Bit depth : 8 bits
Scan type : Progressive
Bits/(Pixel*Frame) : 0.102
Stream size : 1.25 GiB (86%)
Title : Encoded by whip93
Writing library : x264 core 148 r2638 7599210
Encoding settings : cabac=1 / ref=12 / deblock=1:-3:-3 / analyse=0x3:0x133 / me=umh / subme=11 / psy=1 / psy_rd=1.00:0.08 / mixed_ref=1 / me_range=64 / chroma_me=1 / trellis=2 / 8x8dct=1 / cqm=0 / deadzone=21,11 / fast_pskip=0 / chroma_qp_offset=-6 / threads=12 / lookahead_threads=3 / sliced_threads=0 / nr=0 / decimate=1 / interlaced=0 / bluray_compat=0 / constrained_intra=0 / bframes=13 / b_pyramid=2 / b_adapt=2 / b_bias=0 / direct=1 / weightb=1 / open_gop=0 / weightp=2 / keyint=250 / keyint_min=25 / scenecut=40 / intra_refresh=0 / rc_lookahead=60 / rc=2pass / mbtree=1 / bitrate=1460 / ratetol=1.0 / qcomp=0.72 / qpmin=0 / qpmax=69 / qpstep=4 / cplxblur=20.0 / qblur=0.5 / vbv_maxrate=62500 / vbv_bufsize=78125 / nal_hrd=none / filler=0 / ip_ratio=1.40 / aq=1:0.80
Language : Russian
Default : Yes
Forced : No
Color range : Limited
Color primaries : BT.709
Transfer characteristics : BT.709
Matrix coefficients : BT.709
Audio
ID : 2
Format : AC-3
Format/Info : Audio Coding 3
Mode extension : CM (complete main)
Format settings, Endianness : Big
Codec ID : A_AC3
Duration : 2h 6mn
Bit rate mode : Constant
Bit rate : 192 Kbps
Channel(s) : 2 channels
Channel positions : Front: L R
Sampling rate : 48.0 KHz
Compression mode : Lossy
Stream size : 173 MiB (12%)
Language : Russian
Default : Yes
Forced : No
Menu
00:00:00.000 : ru:Глава 1
00:05:48.440 : ru:Глава 2
00:09:55.280 : ru:Глава 3
00:15:42.240 : ru:Глава 4
00:20:52.200 : ru:Глава 5
00:26:29.160 : ru:Глава 6
00:33:52.040 : ru:Глава 7
00:42:07.920 : ru:Глава 8
00:47:58.680 : ru:Глава 9
00:54:37.200 : ru:Глава 10
01:03:50.880 : ru:Глава 11
01:10:34.480 : ru:Глава 12
01:16:17.800 : ru:Глава 13
01:23:39.920 : ru:Глава 14
01:30:34.080 : ru:Глава 15
01:37:59.360 : ru:Глава 16
01:43:36.640 : ru:Глава 17
01:50:02.920 : ru:Глава 18
01:54:59.400 : ru:Глава 19

Скриншоты

-
[cybertorrent.ru].t224.torrent 
Торрент: Зарегистрирован [ 2018-02-15 15:34 ] · 6299AD52D500EA5138DAED4D63813C8521DF8256

Скачать .torrent

Скачать

59 KB

Статус: проверено
Скачан: 0 раз
Размер: 1,45 GB
Профиль [ЛС]
Показать сообщения:    

Текущее время: 21-Май 19:03

Часовой пояс: UTC ± 0



Вы не можете начинать темы
Вы не можете отвечать на сообщения
Вы не можете редактировать свои сообщения
Вы не можете удалять свои сообщения
Вы не можете голосовать в опросах
Вы не можете прикреплять файлы к сообщениям
Вы можете скачивать файлы