Статистика раздачи
Размер:  1,46 GB   |    Зарегистрирован:  3 месяца 6 дней   |    Скачан:  0 раз

Полного источника не было: Никогда

 
   
 
 

lopster ®

Пол:
Не указан
Стаж:
3 месяца 6 дней
Сообщений:
612

Викинг
«Тебе нужно увидеть, чтобы поверить»
Жанр: история, драма
Год выпуска: 2016
Продолжительность: 02:22:07
Cубтитры: русские (форсированные, вшитые)
Режиссер: Андрей Кравчук
В ролях: Данила Козловский, Светлана Ходченкова, Максим Суханов, Игорь Петренко, Андрей Смоляков, Владимир Епифанцев, Александра Бортич, Кирилл Плетнёв, Александр Устюгов, Ростислав Бершауэр, Павел Делонг, Алексей Демидов
Описание:
Раннее Средневековье. Время тяжелых мечей и темных законов крови. Правящий род в раздоре. Вина за случайную смерть брата легла на Великого Князя. По закону мстить ему должен младший брат — бастард. За отказ убивать он заплатит всем, что у него было, потому что «для мира нужно больше мечей, чем для войны».

Автор рипа: stalkerok
Сэмпл
Качество видео: BDRip-AVC [Викинг (2016) Blu-ray disc 1080p [RUS] [UNRATED]]
Формат видео: MKV
Видео: 1242 Кбит/сек, 810x340 (2,40:1), в 24,000 кадра/сек, AVC
Аудио: русский, 226 Кбит/сек, 48,0 КГц, 6 каналов, AAC (LC) Blu-ray RUS
Навигация по главам: есть

x264/MediaInfo

---[Information] [04.02.2018 17:13:43] x264 [info]: frame I:1574 Avg QP:19.65 size: 37813
---[Information] [04.02.2018 17:13:43] x264 [info]: frame P:50159 Avg QP:23.33 size: 12325
---[Information] [04.02.2018 17:13:43] x264 [info]: frame B:152918 Avg QP:25.04 size: 4224
Общее
Уникальный идентификатор : 180028045608111689082534636467089277500 (0x877023F0609A3B0983EDAA559A7B823C)
Полное имя : M:\!!!!!!Rips2\Viking.2016\Viking.2016.BDRip-AVC.RUS.stalkerok.new-team.mkv
Формат : Matroska
Версия формата : Version 4 / Version 2
Размер файла : 1,46 Гбайт
Продолжительность : 2 ч. 22 м.
Общий поток : 1470 Кбит/сек
Дата кодирования : UTC 2018-02-04 22:57:42
Программа кодирования : mkvmerge v8.6.1 ('Flying') 64bit
Библиотека кодирования : libebml v1.3.3 + libmatroska v1.4.4
Видео
Идентификатор : 1
Формат : AVC
Формат/Информация : Advanced Video Codec
Профиль формата : High@L4.1
Параметр CABAC формата : Да
Параметр ReFrames формата : 12 кадров
Идентификатор кодека : V_MPEG4/ISO/AVC
Продолжительность : 2 ч. 22 м.
Битрейт : 1242 Кбит/сек
Ширина : 810 пикселей
Высота : 340 пикселей
Соотношение сторон : 2,40:1
Режим частоты кадров : Постоянный
Частота кадров : 24,000 кадра/сек
Цветовое пространство : YUV
Субдискретизация насыщенности : 4:2:0
Битовая глубина : 8 бит
Тип развёртки : Прогрессивная
Бит/(Пиксели*Кадры) : 0.188
Размер потока : 1,23 Гбайт (85%)
Заголовок : Викинг (2016) (Rip by stalkerok)
Библиотека кодирования : x264 core 152 r2851kMod ba24899
Настройки программы : cabac=1 / ref=12 / deblock=1:-3:-2 / analyse=0x3:0x133 / me=umh / subme=11 / psy=1 / fade_compensate=0.00 / psy_rd=1.00:0.00 / mixed_ref=1 / me_range=32 / chroma_me=1 / trellis=2 / 8x8dct=1 / cqm=0 / deadzone=21,11 / fast_pskip=0 / chroma_qp_offset=-2 / threads=11 / lookahead_threads=2 / sliced_threads=0 / nr=0 / decimate=0 / interlaced=0 / bluray_compat=0 / constrained_intra=0 / bframes=15 / b_pyramid=2 / b_adapt=2 / b_bias=0 / direct=3 / weightb=1 / open_gop=0 / weightp=2 / keyint=240 / keyint_min=23 / scenecut=40 / intra_refresh=0 / rc_lookahead=60 / rc=2pass / mbtree=0 / bitrate=1242 / ratetol=1.0 / qcomp=0.65 / qpmin=0 / qpmax=69 / qpstep=4 / cplxblur=20.0 / qblur=0.5 / vbv_maxrate=50000 / vbv_bufsize=62500 / nal_hrd=none / filler=0 / ip_ratio=1.40 / pb_ratio=1.30 / aq=3:0.97 / zones=193374,204650,q=38
Default : Да
Forced : Нет
Аудио
Идентификатор : 2
Формат : AAC
Формат/Информация : Advanced Audio Codec
Профиль формата : LC
Идентификатор кодека : A_AAC
Продолжительность : 2 ч. 22 м.
Битрейт : 226 Кбит/сек
Каналы : 6 каналов
Расположение каналов : Front: L C R, Side: L R, LFE
Частота : 48,0 КГц
Частота кадров : 46,875 кадров/сек (1024 spf)
Метод сжатия : С потерями
Задержка видео : 9 мс.
Размер потока : 229 Мбайт (15%)
Язык : Russian
Default : Да
Forced : Нет
Меню
00:00:00.000 : en:Chapter 1
00:01:24.791 : en:Chapter 2
00:12:35.458 : en:Chapter 3
00:27:32.375 : en:Chapter 4
00:43:47.000 : en:Chapter 5
01:01:19.000 : en:Chapter 6
01:21:34.125 : en:Chapter 7
01:41:53.416 : en:Chapter 8
01:57:32.750 : en:Chapter 9

Скриншоты

[cybertorrent.ru].t226.torrent 
Торрент: Зарегистрирован [ 2018-02-15 15:34 ] · A29B9D1E9B5BD9E89E982DF3838DB908A844F0C6

Скачать .torrent

Скачать

15 KB

Статус: проверено
Скачан: 0 раз
Размер: 1,46 GB
Профиль [ЛС]
Показать сообщения:    

Текущее время: 21-Май 18:55

Часовой пояс: UTC ± 0



Вы не можете начинать темы
Вы не можете отвечать на сообщения
Вы не можете редактировать свои сообщения
Вы не можете удалять свои сообщения
Вы не можете голосовать в опросах
Вы не можете прикреплять файлы к сообщениям
Вы можете скачивать файлы