Статистика раздачи
Размер:  2,66 GB   |    Зарегистрирован:  3 месяца 10 дней   |    Скачан:  0 раз

Полного источника не было: Никогда

 
   
 
 

lopster ®

Пол:
Не указан
Стаж:
3 месяца 11 дней
Сообщений:
612

Викинг
«Тебе нужно увидеть, чтобы поверить»
Жанр: история, драма
Год выпуска: 2016
Продолжительность: 02:28:47
Режиссер: Андрей Кравчук
В ролях: Данила Козловский, Светлана Ходченкова, Максим Суханов, Игорь Петренко, Андрей Смоляков, Владимир Епифанцев, Александра Бортич, Кирилл Плетнёв, Александр Устюгов, Ростислав Бершауэр, Павел Делонг, Алексей Демидов
Описание:
Раннее Средневековье. Время тяжелых мечей и темных законов крови. Правящий род в раздоре. Вина за случайную смерть брата легла на Великого Князя. По закону мстить ему должен младший брат — бастард. За отказ убивать он заплатит всем, что у него было, потому что «для мира нужно больше мечей, чем для войны».


Автор рипа: stalkerok
Сэмпл
Качество видео: WEB-DLRip-AVC [Викинг (2016) WEB-DL 1080p [UNRATED] - BLUEBIRD]
Формат видео: MKV
Видео: 2169 Кбит/сек, 984*412 (2,40:1), в 25,000 кадров/сек, AVC
Аудио: русский, 384 Кбит/сек, 48,0 КГц, 6 каналов, AC-3 iTunes
Навигация по главам: есть

x264/MediaInfo

x264 [info]: frame I:1680 Avg QP:17.08 size: 48305
x264 [info]: frame P:57983 Avg QP:18.80 size: 20137
x264 [info]: frame B:163533 Avg QP:21.60 size: 7165
Общее
Уникальный идентификатор : 191711296569628809690140234445057670876 (0x903A40AF3F88B645AF5327E06A17BEDC)
Полное имя : M:\!!!!!!!!!!!!!!!!!!!\VIKING\Viking.2016.WEB-DLRip-AVC.RUS..stalkerok.new-team.mkv
Формат : Matroska
Версия формата : Version 4 / Version 2
Размер файла : 2,66 Гбайт
Продолжительность : 2 ч. 28 м.
Общий поток : 2555 Кбит/сек
Название фильма : Викинг (2016) (Rip by stalkerok)
Дата кодирования : UTC 2017-03-03 20:33:47
Программа кодирования : mkvmerge v8.6.1 ('Flying') 64bit
Библиотека кодирования : libebml v1.3.3 + libmatroska v1.4.4
Видео
Идентификатор : 1
Формат : AVC
Формат/Информация : Advanced Video Codec
Профиль формата : High@L4.1
Параметр CABAC формата : Да
Параметр ReFrames формата : 12 кадров
Идентификатор кодека : V_MPEG4/ISO/AVC
Продолжительность : 2 ч. 28 м.
Битрейт : 2169 Кбит/сек
Ширина : 984 пикселя
Высота : 412 пикселей
Соотношение сторон : 2,40:1
Режим частоты кадров : Постоянный
Частота кадров : 25,000 кадров/сек
Цветовое пространство : YUV
Субдискретизация насыщенности : 4:2:0
Битовая глубина : 8 бит
Тип развёртки : Прогрессивная
Бит/(Пиксели*Кадры) : 0.214
Размер потока : 2,25 Гбайт (85%)
Заголовок : Викинг (2016) (Rip by stalkerok)
Библиотека кодирования : x264 core 148 r2705+54 9f484c1 t_mod_Custom [8-bit@all X86_64]
Настройки программы : cabac=1 / ref=12 / deblock=1:-3:-2 / analyse=0x3:0x133 / me=umh / subme=10 / psy=1 / fade_compensate=0.00 / psy_rd=1.00:0.00 / mixed_ref=1 / me_range=32 / chroma_me=1 / trellis=2 / 8x8dct=1 / cqm=0 / deadzone=21,11 / fast_pskip=0 / chroma_qp_offset=-2 / threads=12 / lookahead_threads=3 / sliced_threads=0 / nr=0 / decimate=1 / interlaced=0 / bluray_compat=0 / constrained_intra=0 / fgo=0 / bframes=13 / b_pyramid=2 / b_adapt=2 / b_bias=0 / direct=3 / weightb=1 / open_gop=0 / weightp=2 / keyint=250 / keyint_min=25 / scenecut=40 / intra_refresh=0 / rc_lookahead=60 / rc=crf / mbtree=0 / crf=19.1500 / qcomp=0.65 / qpmin=0:0:0 / qpmax=69:69:69 / qpstep=4 / vbv_maxrate=50000 / vbv_bufsize=62500 / crf_max=0.0 / nal_hrd=none / filler=0 / ip_ratio=1.40 / pb_ratio=1.30 / aq=3:0.90 / aq-sensitivity=10.00 / aq-factor=1.00:1.00:1.00 / aq2=0 / aq3=0
Default : Да
Forced : Нет
Аудио
Идентификатор : 2
Формат : AC-3
Формат/Информация : Audio Coding 3
Расширение режима : CM (complete main)
Параметр Endianness формата : Big
Идентификатор кодека : A_AC3
Продолжительность : 2 ч. 28 м.
Вид битрейта : Постоянный
Битрейт : 384 Кбит/сек
Каналы : 6 каналов
Расположение каналов : Front: L C R, Side: L R, LFE
Частота : 48,0 КГц
Частота кадров : 31,250 кадров/сек (1536 spf)
Метод сжатия : С потерями
Размер потока : 409 Мбайт (15%)
Заголовок : [ORIGINAL] DD 5.1 @ 384 kbps
Язык : Russian
Default : Да
Forced : Нет
Меню
00:00:00.000 : en:Глава 1
00:06:52.400 : en:Глава 2
00:11:23.640 : en:Глава 3
00:16:08.960 : en:Глава 4
00:22:59.080 : en:Глава 5
00:29:13.640 : en:Глава 6
00:34:05.240 : en:Глава 7
00:40:15.200 : en:Глава 8
00:46:52.760 : en:Глава 9
00:53:41.240 : en:Глава 10
00:58:49.840 : en:Глава 11
01:04:29.880 : en:Глава 12
01:11:00.640 : en:Глава 13
01:18:14.000 : en:Глава 14
01:24:44.680 : en:Глава 15
01:38:00.680 : en:Глава 16
01:42:28.040 : en:Глава 17
01:50:02.040 : en:Глава 18
01:55:09.560 : en:Глава 12
02:01:02.240 : en:Глава 13
02:05:57.920 : en:Глава 14
02:10:13.840 : en:Глава 15

Скриншоты


18+
[cybertorrent.ru].t227.torrent 
Торрент: Зарегистрирован [ 2018-02-15 15:34 ] · 382AD615E1BEA478AADB92901A822B978AF7C946

Скачать .torrent

Скачать

14 KB

Статус: проверено
Скачан: 0 раз
Размер: 2,66 GB
Профиль [ЛС]
Показать сообщения:    

Текущее время: 26-Май 15:29

Часовой пояс: UTC ± 0



Вы не можете начинать темы
Вы не можете отвечать на сообщения
Вы не можете редактировать свои сообщения
Вы не можете удалять свои сообщения
Вы не можете голосовать в опросах
Вы не можете прикреплять файлы к сообщениям
Вы можете скачивать файлы