Статистика раздачи
Размер:  213 MB   |    Зарегистрирован:  7 месяцев 1 день   |    Скачан:  0 раз

Полного источника не было: Никогда

   
 

Гость ®

Пол:
Не указан

Канадские байки
Страна: Россия
Жанр: мультфильм
Продолжительность: 00:13:49
Год выпуска: 2014
Режиссёр: Елена Тимошенко
Музыка: Doug Cox, Benny Hawes, Guy Bergeron
Описание: По мотивам канадской народной сказки.
Несколько смешных историй о первых канадских переселенцах – выдающихся хвастунах и весёлых выдумщиках.
Качество: WEBRip
Формат: AVI
Видео: 1949 kbps, 720х400 (16:9), 25.000 fps, MPEG-4 Visual (XviD)
Аудио: 192 kbps, 48.0 kHz, 2 channels, MPEG Audio (MP3)
Субтитры: отсутствуют

Подробные технические данные

General
Complete name : Канадские байки (2014).avi
Format : AVI
Format/Info : Audio Video Interleave
File size : 213 MiB
Duration : 13mn 49s
Overall bit rate : 2 154 Kbps
Writing application : Lavf53.24.0
Writing library : VirtualDub build 35491/release
Video
ID : 0
Format : MPEG-4 Visual
Format profile : Advanced Simple@L5
Format settings, BVOP : 2
Format settings, QPel : No
Format settings, GMC : No warppoints
Format settings, Matrix : Default (H.263)
Codec ID : XVID
Codec ID/Hint : XviD
Duration : 13mn 49s
Bit rate : 1 949 Kbps
Width : 720 pixels
Height : 400 pixels
Display aspect ratio : 16:9
Frame rate : 25.000 fps
Color space : YUV
Chroma subsampling : 4:2:0
Bit depth : 8 bits
Scan type : Progressive
Compression mode : Lossy
Bits/(Pixel*Frame) : 0.271
Stream size : 193 MiB (90%)
Writing library : XviD 73
Audio
ID : 1
Format : MPEG Audio
Format version : Version 1
Format profile : Layer 3
Mode : Joint stereo
Mode extension : MS Stereo
Codec ID : 55
Codec ID/Hint : MP3
Duration : 13mn 49s
Bit rate mode : Constant
Bit rate : 192 Kbps
Channel(s) : 2 channels
Sampling rate : 48.0 KHz
Compression mode : Lossy
Stream size : 19.0 MiB (9%)
Alignment : Aligned on interleaves
Interleave, duration : 24 ms (0.60 video frame)
Interleave, preload duration : 504 ms
Writing library : LAME3.98.4

Скриншоты

[cybertorrent.ru].t228.torrent 
Торрент: Зарегистрирован [ 2019-03-18 10:04 ] · 82BF48706DBE03450F49E248FCE79C53F0FC1AE3

Скачать .torrent

Скачать

17 KB

Статус: проверено
Скачан: 0 раз
Размер: 213 MB
terms.php
Показать сообщения:    

Текущее время: 20-Окт 01:53

Часовой пояс: UTC ± 0



Вы не можете начинать темы
Вы не можете отвечать на сообщения
Вы не можете редактировать свои сообщения
Вы не можете удалять свои сообщения
Вы не можете голосовать в опросах
Вы не можете прикреплять файлы к сообщениям
Вы можете скачивать файлы