Статистика раздачи
Размер:  2,17 GB   |    Зарегистрирован:  3 месяца 12 дней   |    Скачан:  0 раз

Полного источника не было: Никогда

 
   
 
 

lopster ®

Пол:
Не указан
Стаж:
3 месяца 12 дней
Сообщений:
612

Битва за Севастополь
Жанр: военный, драма, боевик
Год выпуска: 2015
Продолжительность: 02:02:52
Субтитры: Русские (Форсированные), Немецкие (Форсированные, Полные)--Режиссёр: Сергей Мокрицкий--В ролях: Юлия Пересильд, Евгений Цыганов, Олег Васильков, Никита Тарасов, Джоан Блэкэм, Полина Пахомова, Владимир Лилицкий, Анатолий Кот, Нателла Абелева-Таганова, Валерий Гришко, Сергей Барковский, Виталий Линецкий, Сергей Пускепалис, Геннадий Ченцов, Светлана Осадченко, Алла Сергийко, Станислав Боклан, Дмитрий Лаленков, Станислав Лесной, Сергей Сипливый...--Описание: Любовь под нескончаемым огнем противника, дружба с Элеонорой Рузвельт, выступление на конференции, повлиявшее на исход Второй мировой войны, желание жить и страх потерять любимого человека — справится ли со всем этим хрупкая женщина?
Это реальная история Людмилы Павличенко — легендарной женщины-снайпера. Солдаты шли в бой с ее именем на устах, а враги устроили на нее охоту. На поле битвы она видела смерть и страдания, но самым серьезным испытанием для нее стала любовь, которую у нее могла забрать война…--Доп. информация: | IMDB | КиноПоиск | Сэмпл | --Качество видео: BDRip-AVC
Формат видео: MKV
Видео: 960x400, (2.40:1), 2082 kbps, 24.000 fps, 0.226 bit/pixel
Аудио: AC3 Dolby Digital, 3/2 (L,C,R,l,r) + LFE ch, 48.0 KHz, 448 Kbps

Немецкий дубляж (Отдельно на Яндекс.Диск)

Аудио 2: AC3 Dolby Digital, 3/2 (L,C,R,l,r) + LFE ch, 48.0 KHz, 448 Kbps

Скриншоты

MediaInfo

x264

raw [info]: 960x400p 1:1 @ 24/1 fps (cfr)
x264 [info]: using SAR=1/1
x264 [info]: using cpu capabilities: MMX2 SSE2Fast SSSE3 SSE4.2 AVX
x264 [info]: profile High, level 4.1
x264 [info]: frame I:1119 Avg QP:15.46 size: 57191
x264 [info]: frame P:40575 Avg QP:17.28 size: 22517
x264 [info]: frame B:135227 Avg QP:19.84 size: 6957
x264 [info]: consecutive B-frames: 2.1% 2.2% 8.8% 30.7% 20.7% 28.5% 3.7% 1.1% 0.6% 0.4% 0.2% 0.1% 0.1% 0.1% 0.2% 0.5%
x264 [info]: mb I I16..4: 13.0% 59.0% 28.0%
x264 [info]: mb P I16..4: 1.9% 15.3% 3.4% P16..4: 31.6% 26.4% 16.0% 0.0% 0.0% skip: 5.3%
x264 [info]: mb B I16..4: 0.2% 1.4% 0.4% B16..8: 35.4% 13.0% 3.9% direct: 7.2% skip:38.4% L0:40.1% L1:40.5% BI:19.5%
x264 [info]: 8x8 transform intra:72.0% inter:49.8%
x264 [info]: coded y,uvDC,uvAC intra: 86.7% 64.7% 39.6% inter: 26.0% 12.7% 2.3%
x264 [info]: i16 v,h,dc,p: 26% 11% 17% 47%
x264 [info]: i8 v,h,dc,ddl,ddr,vr,hd,vl,hu: 13% 11% 14% 7% 10% 11% 11% 11% 13%
x264 [info]: i4 v,h,dc,ddl,ddr,vr,hd,vl,hu: 11% 8% 6% 9% 15% 14% 13% 11% 13%
x264 [info]: i8c dc,h,v,p: 46% 26% 18% 10%
x264 [info]: Weighted P-Frames: Y:8.3% UV:2.6%
x264 [info]: ref P L0: 47.4% 13.5% 15.3% 5.7% 4.8% 3.3% 3.2% 1.8% 1.8% 1.5% 1.6% 0.2% 0.0%
x264 [info]: ref B L0: 79.3% 8.9% 4.2% 2.2% 1.5% 1.2% 1.2% 0.7% 0.5% 0.3%
x264 [info]: ref B L1: 96.0% 4.0%
x264 [info]: kb/s:2081.87
General
Unique ID : 204526437181664383300114221143672949131 (0x99DE5BE607317AD19F9B04AB8107098B)
Complete name : Битва за Севастополь (2015).mkv
Format : Matroska
Format version : Version 4 / Version 2
File size : 2.17 GiB
Duration : 2 h 2 min
Overall bit rate : 2 532 kb/s
Movie name : Битва за Севастополь (2015) BDRip [GER Transfer]
Encoded date : UTC 2017-03-05 07:14:48
Writing application : mkvmerge v8.1.0 ('Psychedelic Postcard') 64bit
Writing library : libebml v1.3.1 + libmatroska v1.4.2
Cover : Yes
Attachments : cover.jpg
Video
ID : 1
Format : AVC
Format/Info : Advanced Video Codec
Format profile : High@L4.1
Format settings, CABAC : Yes
Format settings, ReFrames : 11 frames
Codec ID : V_MPEG4/ISO/AVC
Duration : 2 h 2 min
Bit rate : 2 082 kb/s
Width : 960 pixels
Height : 400 pixels
Display aspect ratio : 2.40:1
Frame rate mode : Constant
Frame rate : 24.000 FPS
Color space : YUV
Chroma subsampling : 4:2:0
Bit depth : 8 bits
Scan type : Progressive
Bits/(Pixel*Frame) : 0.226
Stream size : 1.79 GiB (82%)
Title : Битва за Севастополь (2015) By optik.1557
Writing library : x264 core 148 r2744kMod b97ae06
Encoding settings : cabac=1 / ref=11 / deblock=1:-2:-1 / analyse=0x3:0x113 / me=umh / subme=10 / psy=1 / fade_compensate=0.00 / psy_rd=1.03:0.19 / mixed_ref=1 / me_range=48 / chroma_me=1 / trellis=2 / 8x8dct=1 / cqm=0 / deadzone=21,11 / fast_pskip=0 / chroma_qp_offset=-3 / threads=6 / lookahead_threads=1 / sliced_threads=0 / nr=0 / decimate=1 / interlaced=0 / bluray_compat=0 / constrained_intra=0 / bframes=15 / b_pyramid=2 / b_adapt=2 / b_bias=0 / direct=1 / weightb=1 / open_gop=0 / weightp=2 / keyint=250 / keyint_min=24 / scenecut=40 / intra_refresh=0 / rc_lookahead=60 / rc=crf / mbtree=0 / crf=17.2000 / qcomp=0.60 / qpmin=0 / qpmax=69 / qpstep=4 / vbv_maxrate=50000 / vbv_bufsize=62500 / crf_max=0.0 / nal_hrd=none / filler=0 / ip_ratio=1.40 / pb_ratio=1.30 / aq=3:0.80
Language : Russian
Default : Yes
Forced : No
Audio
ID : 2
Format : AC-3
Format/Info : Audio Coding 3
Mode extension : CM (complete main)
Format settings, Endianness : Big
Codec ID : A_AC3
Duration : 2 h 2 min
Bit rate mode : Constant
Bit rate : 448 kb/s
Channel(s) : 6 channels
Channel positions : Front: L C R, Side: L R, LFE
Sampling rate : 48.0 kHz
Frame rate : 31.250 FPS (1536 spf)
Bit depth : 16 bits
Compression mode : Lossy
Stream size : 394 MiB (18%)
Title : Original
Language : Russian
Default : Yes
Forced : No
Text #1
ID : 3
Format : UTF-8
Codec ID : S_TEXT/UTF8
Codec ID/Info : UTF-8 Plain Text
Duration : 1 h 57 min
Bit rate : 15 b/s
Count of elements : 227
Stream size : 13.2 KiB (0%)
Title : Форсированные
Language : Russian
Default : Yes
Forced : No
Text #2
ID : 4
Format : UTF-8
Codec ID : S_TEXT/UTF8
Codec ID/Info : UTF-8 Plain Text
Duration : 1 h 57 min
Bit rate : 1 b/s
Count of elements : 45
Stream size : 1.67 KiB (0%)
Title : Forced
Language : German
Default : No
Forced : No
Text #3
ID : 5
Format : UTF-8
Codec ID : S_TEXT/UTF8
Codec ID/Info : UTF-8 Plain Text
Duration : 1 h 57 min
Bit rate : 61 b/s
Count of elements : 1306
Stream size : 53.0 KiB (0%)
Title : Full
Language : German
Default : No
Forced : No
Menu
00:00:00.000 : de:Chapter 01
00:10:08.916 : de:Chapter 02
00:18:13.333 : de:Chapter 03
00:26:37.250 : de:Chapter 04
00:36:05.375 : de:Chapter 05
00:46:11.166 : de:Chapter 06
00:53:33.791 : de:Chapter 07
01:02:41.416 : de:Chapter 08
01:13:43.958 : de:Chapter 09
01:21:31.208 : de:Chapter 10
01:30:22.625 : de:Chapter 11
01:43:18.333 : de:Chapter 12
01:59:19.875 : de:Chapter 13
02:02:49.666 : de:Chapter 14
[cybertorrent.ru].t228.torrent 
Торрент: Зарегистрирован [ 2018-02-15 15:34 ] · DA383AAE0912A3412855D108D80222D2E824D977

Скачать .torrent

Скачать

11 KB

Статус: проверено
Скачан: 0 раз
Размер: 2,17 GB
Профиль [ЛС]
Показать сообщения:    

Текущее время: 28-Май 03:13

Часовой пояс: UTC ± 0



Вы не можете начинать темы
Вы не можете отвечать на сообщения
Вы не можете редактировать свои сообщения
Вы не можете удалять свои сообщения
Вы не можете голосовать в опросах
Вы не можете прикреплять файлы к сообщениям
Вы можете скачивать файлы