Статистика раздачи
Размер:  28,6 GB   |    Зарегистрирован:  5 месяцев 7 дней   |    Скачан:  0 раз

Полного источника не было: Никогда

 
   
 
 

irkutsk ®

Пол:
Не указан
Стаж:
5 месяцев 8 дней
Сообщений:
620

- Оригинальное название: South Park
Русское название: Саус Парк, Южный Парк
Год выпуска: 1997
Страна: США
Жанр: Комедия, сатира
Продолжительность: 20 минут (серия)
Перевод:

  • Профессиональный (двухголосый закадровый) Мария Трындяйкина и Евгений Рыбов по заказу "Paramount Comedy" | 2013 год,
  • Профессиональный (двухголосый закадровый) Мария Трындяйкина и Евгений Рыбов по заказу "MTV Россия" | 2005 год,
  • Авторский (одноголосый закадровый) Дмитрий "Goblin" Пучков | 2004 год,
  • Профессиональный (двухголосый закадровый) Александр Клюквин и Людмила Гнилова по заказу Ren-TV | 2000 год,
    Субтитры: присутствуют, русские: 1-7, английские: все серии-Производство: Comedy Central
    Режиссер: Мэтт Стоун, Трэй Паркер / Matt Stone, Trey Parker-Роли озвучивали: Мэтт Стоун, Трэй Паркер, Айзек Хейз, Мэри Кей Бергман, Элиза Шнайдер, Мона Маршалл, Эйприл Стюарт, Джон Хэнсен, Дженифер Хоуэлл, Эдриен Бирд-Описание: Многосерийная повесть о вечно девятилетних школьниках, а также об их родителях, учителях, соседях и других обитателях захолустного горного городка Саут Парк в Колорадо продолжается уже четырнадцать лет эфира. За это время созданный Трэем Паркером и Мэтом Стоуном мультфильм получил немало наград, в том числе четыре статуэтки "Эмми". В 2007 году журнал Time включил "Саут Парк" в свой список "100 лучших телешоу всех времён".
    Подчёркнутая прямота Стэнли Марша, гибкий ум Кайла Брофловски, беспринципность Эрика Теодора Картмэна и цинизм Кеннета Маккормика помогают обрести здравый смысл в самых сюрреалистических ситуациях и в конечном счёте всегда побеждают тупость окружающего нас мира. Часто их похождения вызывают улыбку, иногда - недоумение, а нередко - откровенный ржачный восторг.- -Доп. информация: Наконец-то вышли все сезоны South Park в HD (благодарность улетает команде CtrlHD). Можно и сделать клёвый релиз этого культового мультсериала. Еднственный затык - подсинхронить русские субтитры. Если кто желает помочь - пишите в личку.-Спасибо BigBorman за предоставленные исходные материалы, а именно: непережатые дорожки MTV Россия, Гоблина, Ren-TV, МТВ Украина. Теперь пройдёмся по источникам каждой озвучки:-Paramount Comedy. Дорожки записаны в 2013-2015 годах. За них благодарность уходит Antisnl, ALEKS KV и sk1987. 005-008, 111 серии были записаны с Парамаунта с пониженным битрейтом.
    Если у вас есть эти серии, записанные с битрейтом 256kbps - заделитесь пожалуйста.-MTV Россия. Как я уже скзаал, они взяты из архивов Bigborman'a. Тут всё веселее.

    Список косяков звука:

    С 001 серией ничего не ясно. Она была собрана со вставками из оригинала. Возможно её показывали в стерео.
    Серии 002-005, 008, 009, 113 были показаны на MTV с delay (задержкой) в правом канале => никакого стерео на этих сериях никогда не было. Дорожки были возвращены в человеческий вид.
    В 006 и 011 серии был громче правый канал, но там моно звук.
    В 007 серии в правом канале громче оригинал, но звук стерео.
    010 серия в плохом качестве и в моно-звуке (эта серия разыскивается в более лучшем качестве).
    012 серия без косяков и была показана в стерео, но порой был delay в правом канале.
    Таким образом ищутся исходники MTV дорожек на серии: 001, 010. Просьба отписаться в теме или написать в личку-Дмитрий Goblin Пучков. Источником для дорожек послужили ТВрипы, найденные в сети ALEKS'ом KV, они получше. В архиве у Bigborman были смикшированные дорожки Гоблина (с большой громкостью оригинала и прочими косяками).
    Если у вас есть дорожки, записанные c Ren-TV или исходные пиратские диски, которые продавал Гоблин (см. картинку) - просьба отписаться в теме или написать в личку.-Ren-TV. Тут ничего не поменялось. Разве что 6, 8, 10, 12, 13 серии немного вычищены от шума и клиппинга. В 4 серии озвучка сдвоена с оригиналом (это плохо).
    Если у вас есть дорожки, записанные c Ren-TV - просьба отписаться в теме или написать в личку.-MTV Украина. К сожалению дорожки малобитрейтные и из-за этого присутствуют артефакты.
    Если у вас есть дорожки, записанные c QTV (в хорошем моно звуке) - просьба отписаться в теме или написать в личку.-Сэмпл: скачать
    Качество: WEB-DL 1080p
    Формат: MKV
    Видео кодек: h264
    Аудио кодек: AC3, AAC
    Видео: h264 1916x1076, 29.976 fps, ~5500Kbps
    Аудио:

  • русская Paramount Comedy: Dolby AC3 48000Hz stereo 192Kbps,
  • русская MTV Россия: Dolby AC3 48000Hz stereo 192Kbps,
  • русская Гоблин: Dolby AC3 48000Hz stereo 192Kbps,
  • русская Ren-TV: Dolby AC3 48000Hz stereo 192Kbps | 4, 6, 8, 10, 12, 13 серии,
  • украинская MTV Украина: Dolby AC3 48000Hz stereo 192Kbps,
  • английская: AAC 48000Hz stereo ~160Kbps
    Скриншоты:
    -

    Список серий

    1 сезон:
    001. Картмэн и анальный зонд / Cartman Gets an Anal Probe (Paramount, MTV, Goblin, Ukr, Eng, [Sub: Eng])
    002. Набор веса 4000 / Weight Gain 4000 (Paramount, MTV, Goblin, Ukr, Eng, [Sub: Eng])
    003. Вулкан / Volcano (Paramount, MTV, Goblin, Ukr, Eng, [Sub: Eng])
    004. Большой Эл Гомосек и его гомояхта / Big Gay Al's Big Gay Boat Ride (Paramount, MTV, Goblin, Ren-TV, Ukr, Eng, [Sub: Eng])
    005. Слон занимается любовью со свиньёй / An Elephant Makes Love to a Pig (Paramount, MTV, Goblin, Ukr, Eng, [Sub: Eng])
    006. Смерть / Death (Paramount, MTV, Goblin, Ren-TV, Ukr, Eng, [Sub: Eng])
    007. Конъюнктивит / Pinkeye (Paramount, MTV, Goblin, Ukr, Eng, [Sub: Eng])
    008. Дэмиен / Damien (Paramount, MTV, Goblin, Ren-TV, Ukr, Eng, [Sub: Eng])
    009. Кошмарный Марвин / Starvin' Marvin (Paramount, MTV, Goblin, Ren-TV, Ukr, Eng, [Sub: Eng])
    010. Мистер Хэнки, Рождественская Какашка / Mr. Hankey, the Christmas Poo (Paramount, MTV, Goblin, Ren-TV, Ukr, Eng, [Sub: Eng])
    011. Ринопластическая клиника Тома / Tom's Rhinoplasty (Paramount, MTV, Goblin, Ukr, Eng, [Sub: Eng])
    012. Меха-Стрейзанд / Mecha-Streisand (Paramount, MTV, Goblin, Ren-TV, Ukr, Eng, [Sub: Eng])
    013. Мамаша Картмэна — грязная шлюха / Cartman's Mom Is a Dirty Slut (Paramount, MTV, Goblin, Ren-TV, Ukr, Eng, [Sub: Eng])

    Media Info

    Код:General
    Unique ID : 194016098137242366931403698064227550759 (0x91F6242CDD2879039862C1250637C627)
    Complete name : V:\HD\South.Park.S01.1080p.WEB-DL.AAC2.0.H.264-SerGoLeOne\South.Park.S01E01.Cartman.Gets.an.Anal.Probe.1080p.WEB-DL.AAC2.0.H.264-SerGoLeOne.mkv
    Format : Matroska
    Format version : Version 1
    File size : 966 MiB
    Duration : 22mn 7s
    Overall bit rate : 6 104 Kbps
    Encoded date : UTC 2015-04-04 11:18:48
    Writing application : mkvmerge v2.3.0 ('Freak U') built on Sep 8 2008 18:32:16
    Writing library : libebml v0.7.7 + libmatroska v0.8.1
    _STATISTICS_WRITING_APP : mkvmerge v7.7.0 ('Six Voices') 64bit built on Feb 28 2015 23:39:33
    _STATISTICS_WRITING_DATE_UTC : 2015-03-07 03:32:56
    _STATISTICS_TAGS : BPS DURATION NUMBER_OF_FRAMES NUMBER_OF_BYTES
    DURATION : 00:21:28.819000000
    NUMBER_OF_FRAMES : 603
    NUMBER_OF_BYTES : 16080
    Video
    ID : 1
    Format : AVC
    Format/Info : Advanced Video Codec
    Format profile : High@L4.0
    Format settings, CABAC : Yes
    Format settings, ReFrames : 4 frames
    Codec ID : V_MPEG4/ISO/AVC
    Duration : 22mn 7s
    Width : 1 916 pixels
    Height : 1 076 pixels
    Display aspect ratio : 16:9
    Frame rate mode : Constant
    Frame rate : 23.976 fps
    Color space : YUV
    Chroma subsampling : 4:2:0
    Bit depth : 8 bits
    Scan type : Progressive
    Language : English
    Default : Yes
    Forced : No
    Color primaries : BT.709
    Transfer characteristics : BT.709
    Matrix coefficients : BT.709
    Audio #1
    ID : 2
    Format : AC-3
    Format/Info : Audio Coding 3
    Mode extension : CM (complete main)
    Format settings, Endianness : Big
    Codec ID : A_AC3
    Duration : 22mn 7s
    Bit rate mode : Constant
    Bit rate : 192 Kbps
    Channel(s) : 2 channels
    Channel positions : Front: L R
    Sampling rate : 48.0 KHz
    Bit depth : 16 bits
    Compression mode : Lossy
    Stream size : 30.4 MiB (3%)
    Title : Paramount Comedy
    Language : Russian
    Default : Yes
    Forced : No
    Audio #2
    ID : 3
    Format : AC-3
    Format/Info : Audio Coding 3
    Mode extension : CM (complete main)
    Format settings, Endianness : Big
    Codec ID : A_AC3
    Duration : 22mn 7s
    Bit rate mode : Constant
    Bit rate : 192 Kbps
    Channel(s) : 2 channels
    Channel positions : Front: L R
    Sampling rate : 48.0 KHz
    Bit depth : 16 bits
    Compression mode : Lossy
    Stream size : 30.4 MiB (3%)
    Title : MTV Russia
    Language : Russian
    Default : No
    Forced : No
    Audio #3
    ID : 4
    Format : AC-3
    Format/Info : Audio Coding 3
    Mode extension : CM (complete main)
    Format settings, Endianness : Big
    Codec ID : A_AC3
    Duration : 22mn 7s
    Bit rate mode : Constant
    Bit rate : 192 Kbps
    Channel(s) : 2 channels
    Channel positions : Front: L R
    Sampling rate : 48.0 KHz
    Bit depth : 16 bits
    Compression mode : Lossy
    Stream size : 30.4 MiB (3%)
    Title : Goblin
    Language : Russian
    Default : No
    Forced : No
    Audio #4
    ID : 5
    Format : AC-3
    Format/Info : Audio Coding 3
    Mode extension : CM (complete main)
    Format settings, Endianness : Big
    Codec ID : A_AC3
    Duration : 22mn 7s
    Bit rate mode : Constant
    Bit rate : 192 Kbps
    Channel(s) : 2 channels
    Channel positions : Front: L R
    Sampling rate : 48.0 KHz
    Bit depth : 16 bits
    Compression mode : Lossy
    Stream size : 30.4 MiB (3%)
    Title : MTV Ukraine
    Language : Ukrainian
    Default : No
    Forced : No
    Audio #5
    ID : 6
    Format : AAC
    Format/Info : Advanced Audio Codec
    Format profile : LC
    Codec ID : A_AAC
    Duration : 22mn 7s
    Channel(s) : 2 channels
    Channel positions : Front: L R
    Sampling rate : 48.0 KHz
    Compression mode : Lossy
    Title : Original
    Language : English
    Default : No
    Forced : No
    Text
    ID : 7
    Format : UTF-8
    Codec ID : S_TEXT/UTF8
    Codec ID/Info : UTF-8 Plain Text
    Language : English
    Default : Yes
    Forced : No
    - - Оригинальное название: South Park
    Русское название: Саус Парк, Южный Парк
    Год выпуска: 1998
    Страна: США
    Жанр: Комедия, сатира
    Продолжительность: 20 минут (серия)
    Перевод:

  • Профессиональный (двухголосый закадровый) Мария Трындяйкина и Евгений Рыбов по заказу "Paramount Comedy" | 2013 год,
  • Профессиональный (двухголосый закадровый) Мария Трындяйкина и Евгений Рыбов по заказу "MTV Россия" | 2005 год,
  • Авторский (одноголосый закадровый) Дмитрий "Goblin" Пучков | 2004 год,
  • Профессиональный (двухголосый закадровый) Александр Клюквин и Людмила Гнилова по заказу Ren-TV | 2000 год,
    Субтитры: присутствуют, английские: все серии-Производство: Comedy Central
    Режиссер: Мэтт Стоун, Трэй Паркер / Matt Stone, Trey Parker-Роли озвучивали: Мэтт Стоун, Трэй Паркер, Айзек Хейз, Мэри Кей Бергман, Элиза Шнайдер, Мона Маршалл, Эйприл Стюарт, Джон Хэнсен, Дженифер Хоуэлл, Эдриен Бирд-Описание: Многосерийная повесть о вечно девятилетних школьниках, а также об их родителях, учителях, соседях и других обитателях захолустного горного городка Саут Парк в Колорадо продолжается уже четырнадцать лет эфира. За это время созданный Трэем Паркером и Мэтом Стоуном мультфильм получил немало наград, в том числе четыре статуэтки "Эмми". В 2007 году журнал Time включил "Саут Парк" в свой список "100 лучших телешоу всех времён".
    Подчёркнутая прямота Стэнли Марша, гибкий ум Кайла Брофловски, беспринципность Эрика Теодора Картмэна и цинизм Кеннета Маккормика помогают обрести здравый смысл в самых сюрреалистических ситуациях и в конечном счёте всегда побеждают тупость окружающего нас мира. Часто их похождения вызывают улыбку, иногда - недоумение, а нередко - откровенный ржачный восторг.- -Доп. информация: За рип с тунца - благодарность улетает команде CtrlHD.-Спасибо BigBorman за предоставленные исходные материалы, а именно: непережатые дорожки MTV Россия, Ren-TV, МТВ Украина. Теперь пройдёмся по источникам каждой озвучки:-Paramount Comedy. Дорожки записаны в 2013-2015 годах. За них благодарность уходит Antisnl, ALEKS KV и sk1987. 207 серия была записана с Парамаунта с пониженным битрейтом.
    Если у вас есть эта серия с битрейтом 256kbps - заделитесь пожалуйста. 1 и 18 серию Парамаунт (в новой озвучке) не показывал!-MTV Россия. В этом сезоне источником звука послужил не только архив Bigborman'a, но и записи с Парамаунта 2012 года.

    Список косяков звука:

    201: делей в правом канале, звука с Парамаунта нету
    202-204: делей в правом канале, звук с МТВ лучше Парамаунта, на Парамаунте - сдвоенный моно
    205: стерео, но оригинал на правом канале другой громкости, на Парамаунте - сдвоенный моно
    206: делей в правом канале, звук использовался с Парамаунта
    207: звук забагованый и запитченый, с МТВ лучше
    208-212: делей в правом, с Парамаунта нету
    213-214: стерео, но оригинал справа другой громкости, звук с Парамаунта лучше
    215: делей в правом, но стерeо, но на МТВ моно, звук с Парамаунта лучше
    216-217: стерео, но оригинал справа другой громкости, звук с Парамаунта лучше
    218: делей в правом, но стерео, с Парамаунта этой серии нету
    -Дмитрий Goblin Пучков. Источником для дорожек послужили ТВрипы, найденные в сети ALEKS'ом KV, они получше. По REN-TV показывали не полные версии серий с переводом Гоблина, в дорожках присутствуют вставки с пиратских дисков Гоблина, которые предоставил kro44i.
    Если у вас есть дорожки, записанные c Ren-TV или исходные пиратские диски, которые продавал Гоблин (см. картинку) - просьба отписаться в теме или написать в личку.-Ren-TV. Серии немного вычищены от шума и клиппинга.
    Если у вас есть дорожки, записанные c Ren-TV - просьба отписаться в теме или написать в личку.-MTV Украина. К сожалению дорожки малобитрейтные и из-за этого присутствуют артефакты. За сведение дорожек спасибо Jonas Hanway.
    Если у вас есть дорожки, записанные c QTV (в хорошем моно звуке) - просьба отписаться в теме или написать в личку.-Сэмпл: скачать
    Качество: WEB-DL 1080p
    Формат: MKV
    Видео кодек: h264
    Аудио кодек: AC3, AAC
    Видео: h264 1916x1076, 29.976 fps, ~5500Kbps
    Аудио:

  • русская Paramount Comedy: Dolby AC3 48000Hz stereo 192Kbps l 2-17 серии,
  • русская MTV Россия: Dolby AC3 48000Hz stereo 192Kbps,
  • русская Гоблин: Dolby AC3 48000Hz stereo 192Kbps,
  • русская Ren-TV: Dolby AC3 48000Hz stereo 192Kbps | 3-5, 8-18 серии,
  • украинская MTV Украина: Dolby AC3 48000Hz stereo 192Kbps,
  • английская: AAC 48000Hz stereo ~160Kbps
    Скриншоты:
    -

    Список серий

    2 сезон:
    01. Terrance and Phillip in Not without My Anus
    02. Cartman's Mom Is Still a Dirty Slut
    03. Chickenlover
    04. Ike's Wee Wee
    05. Conjoined Fetus Lady
    06. The Mexican Staring Frog of Southern Sri Lanka
    07. City on the Edge of Forever
    08. Summer Sucks
    09. Chef's Salty Chocolate Balls
    10. Chickenpox
    11. Roger Ebert Should Lay off the Fatty Foods
    12. Clubhouses
    13. Cow Days
    14. Chef Aid
    15. Spookyfish
    16. Merry Christmas Charlie Manson!
    17. Gnomes
    18. Prehistoric Ice Man

    Media Info

    Код:General
    Unique ID : 218084977952111118449945179169928978414 (0xA411A391F560CF57BF53892D83DB1FEE)
    Complete name : V:\HD\South Park (WEB-DL l 1080p l SerGoLeOne)\South.Park.S02.1080p.WEB-DL.AAC2.0.H.264-SerGoLeOne\South.Park.S02E02.Cartmans.Mom.is.Still.a.Dirty.Slut.1080p.WEB-DL.AAC2.0.H.264-SerGoLeOne.mkv
    Format : Matroska
    Format version : Version 1
    File size : 933 MiB
    Duration : 22mn 7s
    Overall bit rate : 5 900 Kbps
    Encoded date : UTC 2015-05-11 20:01:55
    Writing application : mkvmerge v2.3.0 ('Freak U') built on Sep 8 2008 18:32:16
    Writing library : libebml v0.7.7 + libmatroska v0.8.1
    DURATION : 00:21:22.779000000
    NUMBER_OF_FRAMES : 629
    NUMBER_OF_BYTES : 18754
    _STATISTICS_WRITING_APP : mkvmerge v7.7.0 ('Six Voices') 64bit built on Feb 28 2015 23:39:33
    _STATISTICS_WRITING_DATE_UTC : 2015-03-08 22:33:20
    _STATISTICS_TAGS : BPS DURATION NUMBER_OF_FRAMES NUMBER_OF_BYTES
    Video
    ID : 1
    Format : AVC
    Format/Info : Advanced Video Codec
    Format profile : High@L4.0
    Format settings, CABAC : Yes
    Format settings, ReFrames : 4 frames
    Codec ID : V_MPEG4/ISO/AVC
    Duration : 22mn 7s
    Width : 1 916 pixels
    Height : 1 076 pixels
    Display aspect ratio : 16:9
    Frame rate mode : Constant
    Frame rate : 23.976 fps
    Color space : YUV
    Chroma subsampling : 4:2:0
    Bit depth : 8 bits
    Scan type : Progressive
    Language : English
    Default : Yes
    Forced : No
    Color primaries : BT.709
    Transfer characteristics : BT.709
    Matrix coefficients : BT.709
    Audio #1
    ID : 2
    Format : AC-3
    Format/Info : Audio Coding 3
    Mode extension : CM (complete main)
    Format settings, Endianness : Big
    Codec ID : A_AC3
    Duration : 22mn 7s
    Bit rate mode : Constant
    Bit rate : 192 Kbps
    Channel(s) : 2 channels
    Channel positions : Front: L R
    Sampling rate : 48.0 KHz
    Bit depth : 16 bits
    Compression mode : Lossy
    Stream size : 30.4 MiB (3%)
    Title : Paramount Comedy
    Language : Russian
    Default : Yes
    Forced : No
    Audio #2
    ID : 3
    Format : AC-3
    Format/Info : Audio Coding 3
    Mode extension : CM (complete main)
    Format settings, Endianness : Big
    Codec ID : A_AC3
    Duration : 22mn 7s
    Bit rate mode : Constant
    Bit rate : 192 Kbps
    Channel(s) : 2 channels
    Channel positions : Front: L R
    Sampling rate : 48.0 KHz
    Bit depth : 16 bits
    Compression mode : Lossy
    Stream size : 30.4 MiB (3%)
    Title : MTV Russia
    Language : Russian
    Default : No
    Forced : No
    Audio #3
    ID : 4
    Format : AC-3
    Format/Info : Audio Coding 3
    Mode extension : CM (complete main)
    Format settings, Endianness : Big
    Codec ID : A_AC3
    Duration : 22mn 7s
    Bit rate mode : Constant
    Bit rate : 192 Kbps
    Channel(s) : 2 channels
    Channel positions : Front: L R
    Sampling rate : 48.0 KHz
    Bit depth : 16 bits
    Compression mode : Lossy
    Stream size : 30.4 MiB (3%)
    Title : Goblin
    Language : Russian
    Default : No
    Forced : No
    Audio #4
    ID : 5
    Format : AC-3
    Format/Info : Audio Coding 3
    Mode extension : CM (complete main)
    Format settings, Endianness : Big
    Codec ID : A_AC3
    Duration : 22mn 7s
    Bit rate mode : Constant
    Bit rate : 192 Kbps
    Channel(s) : 2 channels
    Channel positions : Front: L R
    Sampling rate : 48.0 KHz
    Bit depth : 16 bits
    Compression mode : Lossy
    Stream size : 30.4 MiB (3%)
    Title : MTV Ukraine
    Language : Ukrainian
    Default : No
    Forced : No
    Audio #5
    ID : 6
    Format : AAC
    Format/Info : Advanced Audio Codec
    Format profile : LC
    Codec ID : A_AAC
    Duration : 22mn 7s
    Channel(s) : 2 channels
    Channel positions : Front: L R
    Sampling rate : 48.0 KHz
    Compression mode : Lossy
    Title : Original
    Language : English
    Default : No
    Forced : No
    Text
    ID : 7
    Format : UTF-8
    Codec ID : S_TEXT/UTF8
    Codec ID/Info : UTF-8 Plain Text
    Language : English
    Default : No
    Forced : No
    ссылка на альтернативные раздачи
    [cybertorrent.ru].t2283.torrent 
    Торрент: Зарегистрирован [ 2018-02-16 11:35 ] · 33CDCCED37B3724A7FEDD8283DCBFE5FF27AEC31

    Скачать .torrent

    Скачать

    77 KB

    Статус: проверено
    Скачан: 0 раз
    Размер: 28,6 GB
  • Профиль [ЛС]
    Показать сообщения:    

    Текущее время: 23-Июл 13:57

    Часовой пояс: UTC ± 0



    Вы не можете начинать темы
    Вы не можете отвечать на сообщения
    Вы не можете редактировать свои сообщения
    Вы не можете удалять свои сообщения
    Вы не можете голосовать в опросах
    Вы не можете прикреплять файлы к сообщениям
    Вы можете скачивать файлы