Статистика раздачи
Размер:  1,36 GB   |    Зарегистрирован:  3 месяца 7 дней   |    Скачан:  0 раз

Полного источника не было: Никогда

 
   
 
 

lopster ®

Пол:
Не указан
Стаж:
3 месяца 7 дней
Сообщений:
612

Блестящей жизни лепесток- Жанр: Мелодрама
Год выпуска: 2016
Продолжительность: 01:29:52-Режиссёр: Алексей Мясников-В ролях: Дмитрий Калязин, Антонина Дивина, Артур Сопельник, Наталья Ионова, Валерий Гришко, Лиза Климова, Анастасия Немец, Любовь Фирсова, Валентина Шанаева, Ксения Иванова, Никита Абдулов-Описание: Вера (Антонина Дивина) – скромная молодая девушка, работает медсестрой. У нее есть преданный друг детства Артем (Артур Сопельник). Молодой человек давно и безответно влюблен в нее, но никак не может набраться смелости признаться в своих чувствах.
А тем временем Вера влюбляется в одного из своих пациентов – перспективного инженера Данилу Игнатова (Дмитрий Калязин). Однако, как только у них с Верой завязывается роман, Данилу переводят в Москву.
В столице перед Данилой открываются большие перспективы в карьере и личной жизни. В него влюбляется дочь его начальника, богатого бизнесмена. Теперь от новой блестящей жизни инженера отделяет только беременная Вера.
Друг Игнатова предлагает помочь ему решить проблему с бывшей девушкой и ребенком…-Сэмпл: http://multi-up.com/1143867-Качество видео: HDTVRip
Формат видео: AVI
Видео: 720x304 (2.35:1), 25.000 fps, XviD build 73, 1972 Kbps, 0.36 Bits/Pixel
Аудио: 48 kHz, AC3 Dolby Digital, 2 ch, 192 Kbps-Релиз от: -

MediaInfo

General
Complete name : Downloads\БЛЕСТЯЩЕЙ ЖИЗНИ ЛЕПЕСТОК.2016.HDTVRip.Files-x.avi
Format : AVI
Format/Info : Audio Video Interleave
File size : 1.36 GiB
Duration : 1h 29mn
Overall bit rate : 2 173 Kbps
Writing application : VirtualDubMod 1.5.10.3 | www.virtualdub-fr.org || (build 2550/release)
Writing library : VirtualDubMod build 2550/release
Video #0
ID : 0
Format : MPEG-4 Visual
Format profile : Advanced Simple@L5
Format settings, BVOP : 1
Format settings, QPel : No
Format settings, GMC : No warppoints
Format settings, Matrix : Custom
Codec ID : XVID
Codec ID/Hint : XviD
Duration : 1h 29mn
Bit rate : 1 972 Kbps
Width : 720 pixels
Height : 304 pixels
Display aspect ratio : 2.35:1
Frame rate : 25.000 fps
Color space : YUV
Chroma subsampling : 4:2:0
Bit depth : 8 bits
Scan type : Progressive
Compression mode : Lossy
Bits/(Pixel*Frame) : 0.360
Stream size : 1.24 GiB (91%)
Writing library : XviD 73
Audio #1
ID : 1
Format : AC-3
Format/Info : Audio Coding 3
Mode extension : CM (complete main)
Format settings, Endianness : Big
Codec ID : 2000
Duration : 1h 29mn
Bit rate mode : Constant
Bit rate : 192 Kbps
Channel(s) : 2 channels
Channel positions : Front: L R
Sampling rate : 48.0 KHz
Bit depth : 16 bits
Compression mode : Lossy
Stream size : 123 MiB (9%)
Alignment : Split accross interleaves
Interleave, duration : 40 ms (1.00 video frame)
Interleave, preload duration : 500 ms

Скриншот c названием фильма

Скриншоты

[cybertorrent.ru].t229.torrent 
Торрент: Зарегистрирован [ 2018-02-15 15:34 ] · 7C1D5C0262F3B160718FC842CDC1F60F57CF7D6A

Скачать .torrent

Скачать

14 KB

Статус: проверено
Скачан: 0 раз
Размер: 1,36 GB
Профиль [ЛС]
Показать сообщения:    

Текущее время: 23-Май 07:11

Часовой пояс: UTC ± 0



Вы не можете начинать темы
Вы не можете отвечать на сообщения
Вы не можете редактировать свои сообщения
Вы не можете удалять свои сообщения
Вы не можете голосовать в опросах
Вы не можете прикреплять файлы к сообщениям
Вы можете скачивать файлы