Статистика раздачи
Размер:  8,06 GB   |    Зарегистрирован:  8 месяцев   |    Скачан:  0 раз

Полного источника не было: Никогда

 
   
 
 

tvoja_zaja ®

Пол:
Не указан
Стаж:
8 месяцев 1 день
Сообщений:
126

Том и Джерри: Комедийное шоу / The Tom and Jerry Comedy Show- Страна: США
Жанр: Приключения, комедия, семейный
Продолжительность: 00:21:06
Года выпуска: 1980-1982
Перевод 1: Профессиональный (полное дублирование) [Объединение Русский Дубляж]
Перевод 2: Профессиональный (многолосый закадровый) [РТР]
Субтитры: Отсутствуют
Русские субтитры: нет
Режиссёр: Гвен Ветцлер / Gwen Wetzler
Описание: Сюжет большинства серий мультсериала основан на тщетных попытках Тома поймать мышонка на увечьях и разрушениях, которые из всего этого следуют. Поскольку в некоторых сериях персонажи довольно мирно уживаются между собой, остаётся непонятным, за что Том постоянно преследует Джерри. Надо признать, что погони доставляют удовольствие им обоим.-Альтернативные раздачи
Семпл-Качество: DVB
Формат: TS
Видео: AVC, 720x576, 25.000 fps, ~ 3000 Kbps
Аудио: MP2, 48.0 KHz, 2 ch, 256 Kbps-

Список серий

01. Farewell, Sweet Mouse (перевод ОРД) / Droopy's Restless Night (перевод ОРД) / New Mouse in the House (перевод ОРД)
02. Heavy Booking (перевод ОРД) / Matterhorn Droopy (перевод ОРД) / The Puppy Sitter (перевод ОРД)
03. Most Wanted Cat (перевод ОРД) / Pest in the West (перевод ОРД) / Cat in the Fiddle (перевод ОРД)
04. Invasion of the Mouse Snatchers (перевод ОРД) / The Incredible Droop (перевод ОРД) / The Plaid Baron Strikes Again (перевод ОРД)
05. Incredible Shrinking Cat (перевод ОРД) / Scared Bear (перевод ОРД) / When the Rooster Crows (перевод ОРД)
06. School for Cats (перевод ОРД) / Disco Droopy (перевод ОРД) / Pied Piper Puss (перевод ОРД)
07. Under the Big Top (перевод ОРД) / Lumber Jerks (перевод ОРД) / Gopher It, Tom (перевод ОРД)
08. Snowbrawl (перевод ОРД) / Getting the Foot (перевод ОРД) / Kitty Hawk Kitty (перевод ОРД)
09. Get Along, Little Jerry (перевод РТР) / Star-Crossed Wolf (перевод РТР) / Spike's Birthday (перевод РТР)
10. No Museum Peace (перевод РТР) / A Day at the Bakery (перевод ОРД) / Mouse Over Miami (перевод РТР)
11. The Trojan Dog (перевод ОРД) / Foreign Legion Droopy (перевод ОРД) / Pie in the Sky (перевод ОРД)
12. Save That Mouse (перевод ОРД) / Old Mother Hubbard (перевод ОРД) / Say What? (перевод ОРД)
13. Superstocker (перевод РТР) / Droopy's Good Luck Charm (перевод РТР) / The Great Mousini (перевод ОРД)
14. Jerry's Country Cousin (перевод ОРД) / The Great Diamond Heist (перевод ОРД) / Mechanical Failure (перевод ОРД)
15. A Connecticut Mouse in King Arthur's Cork (перевод ОРД, закадровый) / The Great Train Rubbery (перевод ОРД) / Stage Struck (перевод ОРД)

Подробные технические данные

General
ID : 1 (0x1)
Complete name : D:\IPTV\Том и Джерри. Комедийное шоу. (СТС)\The Tom and Jerry Comedy Show.e01.ts
Format : MPEG-TS
File size : 537 MiB
Duration : 21mn 6s
Overall bit rate mode : Variable
Overall bit rate : 3 558 Kbps
Video
ID : 67 (0x43)
Menu ID : 1 (0x1)
Format : AVC
Format/Info : Advanced Video Codec
Format profile : High@L3.0
Format settings, CABAC : Yes
Format settings, ReFrames : 3 frames
Codec ID : 27
Duration : 21mn 6s
Bit rate : 3 124 Kbps
Width : 720 pixels
Height : 576 pixels
Display aspect ratio : 4:3
Frame rate : 25.000 fps
Standard : Component
Color space : YUV
Chroma subsampling : 4:2:0
Bit depth : 8 bits
Scan type : Interlaced
Scan order : Top Field First
Bits/(Pixel*Frame) : 0.301
Stream size : 471 MiB (88%)
Color primaries : BT.601 PAL
Transfer characteristics : BT.470 System B, BT.470 System G
Matrix coefficients : BT.601
Color range : Limited
Audio
ID : 68 (0x44)
Menu ID : 1 (0x1)
Format : MPEG Audio
Format version : Version 1
Format profile : Layer 2
Codec ID : 3
Duration : 21mn 6s
Bit rate mode : Constant
Bit rate : 256 Kbps
Channel(s) : 2 channels
Sampling rate : 48.0 KHz
Compression mode : Lossy
Stream size : 38.6 MiB (7%)
Language : English

Скриншоты

[cybertorrent.ru].t2297.torrent 
Торрент: Зарегистрирован [ 2018-02-16 11:35 ] · 134028F82F7AF9E041A4B3A76FC94BCA2D3580AF

Скачать .torrent

Скачать

12 KB

Статус: проверено
Скачан: 0 раз
Размер: 8,06 GB
Профиль [ЛС]
Показать сообщения:    

Текущее время: 17-Окт 00:29

Часовой пояс: UTC ± 0



Вы не можете начинать темы
Вы не можете отвечать на сообщения
Вы не можете редактировать свои сообщения
Вы не можете удалять свои сообщения
Вы не можете голосовать в опросах
Вы не можете прикреплять файлы к сообщениям
Вы можете скачивать файлы
Torrents24.ru открытый BitTorrent Torrents24.pl открытый BitTorrent CyberTorrent.ru открытый BitTorrent BtList.ru рейтинг BitTorrent трекеров Яндекс.Метрика