Статистика раздачи
Нет
 
     
 
 

K15 ®

Пол:
Мужской
Стаж:
1 год 7 месяцев
Сообщений:
506

- Чернобыль - Информация о фильме:
Название: Чернобыль
Год выхода: 2021
Жанр: Драма, история
Режиссер: Данила Козловский
В ролях: Данила Козловский, Филипп Авдеев, Оксана Акиньшина, Николай Козак, Равшана Куркова, Игорь Черневич, Петр Терещенко, Артур Бесчастный, Андрей Арчаков, Самвел Тадевосян
Описание: Алексей Карпушин — обычный молодой советский парень, пожарный в Припяти, который впервые начинает строить планы длиннее, чем на выходные или отпуск — он влюбляется в парикмахера Олю. В прошлом у них уже были отношения, но тогда Алексей упустил свой шанс. Теперь у Оли есть маленький сын Леша, но Алексей намерен никогда больше не повторять прежних ошибок: он признается Оле в своих чувствах, и все вместе они планируют переехать к морю. Авария на Чернобыльской АЭС ставит под угрозу мечту Алексея и жизни всех тех, кто ему дорог. Взрыв реактора грозит смертью не только тысячам людей, оказавшихся в зоне радиационного поражения: возможен второй взрыв, катастрофические последствия которого могут быть несоизмеримо больше. Алексей отправляется тушить пожар, а затем погружается под ядерный реактор, чтобы выпустить воду из резервуара и тем самым предотвратить еще один мощный взрыв.

Страна: Россия
Студия: Централ Партнершип, DK Entertainment, ГПМ КИТ, Нон-стоп Продакшн
Продолжительность: 02:16:20
Перевод: Не требуется - Лицензия

Информация о файле:
Кодек: AVC
Формат: MKV
Качество: HDRip-AVC
Видео: MPEG-4 AVC, 1024x428, 24.000 fps, 1703 kbps
Аудио RU: AC3, 6 ch, 48 kHz, 448 kbps
Субтитры: Русские (Forced, Full), английские
Навигация по главам: Да

Скриншоты

Тех.данные видеофайла

x264 info: frame I:1372 Avg QP:13.70 size: 52326
x264 info: frame P:48645 Avg QP:17.37 size: 16611
x264 info: frame B:146291 Avg QP:19.54 size: 5859
x264 info: consecutive B-frames: 3.3% 6.0% 13.3% 20.4% 15.4% 34.1% 3.5% 1.1% 1.0% 0.7% 0.3% 0.2% 0.8%
General
Unique ID : 64722576771605241798968715736679657911 (0x30B11D68012AC8C666C60767107731B7)
Complete name : D:\uTorrent\Рипы wolf1245\Chernobil.2021.RUS.Lic.HDRip-AVC.[wolf1245.MediaBit].mkv
Format : Matroska
Format version : Version 4
File size : 2.05 GiB
Duration : 2 h 16 min
Overall bit rate : 2 149 kb/s
Movie name : Chernobil.2021.RUS.Lic.HDRip-AVC.[wolf1245.MediaBit]
Encoded date : UTC 2021-07-06 12:38:31
Writing application : mkvmerge v58.0.0 ('Supper's Ready') 64-bit
Writing library : libebml v1.4.2 + libmatroska v1.6.4
Video
ID : 1
Format : AVC
Format/Info : Advanced Video Codec
Format profile : High@L4.1
Format settings : CABAC / 14 Ref Frames
Format settings, CABAC : Yes
Format settings, Reference frames : 14 frames
Codec ID : V_MPEG4/ISO/AVC
Duration : 2 h 16 min
Bit rate : 1 703 kb/s
Width : 1 024 pixels
Height : 428 pixels
Display aspect ratio : 2.40:1
Frame rate mode : Constant
Frame rate : 24.000 FPS
Color space : YUV
Chroma subsampling : 4:2:0
Bit depth : 8 bits
Scan type : Progressive
Bits/(Pixel*Frame) : 0.162
Stream size : 1.62 GiB (79%)
Title : .[wolf1245.MediaBit]
Writing library : x264 core 157 r2958 57baac4
Encoding settings : cabac=1 / ref=14 / deblock=1:-2:-2 / analyse=0x3:0x133 / me=umh / subme=11 / psy=1 / psy_rd=1.02:0.07 / mixed_ref=1 / me_range=48 / chroma_me=1 / trellis=2 / 8x8dct=1 / cqm=0 / deadzone=21,11 / fast_pskip=1 / chroma_qp_offset=-3 / threads=10 / lookahead_threads=2 / sliced_threads=0 / nr=0 / decimate=1 / interlaced=0 / bluray_compat=0 / constrained_intra=0 / bframes=12 / b_pyramid=2 / b_adapt=2 / b_bias=0 / direct=3 / weightb=1 / open_gop=0 / weightp=2 / keyint=240 / keyint_min=24 / scenecut=40 / intra_refresh=0 / rc_lookahead=60 / rc=2pass / mbtree=1 / bitrate=1703 / ratetol=1.0 / qcomp=0.60 / qpmin=0 / qpmax=69 / qpstep=4 / cplxblur=20.0 / qblur=0.5 / vbv_maxrate=50000 / vbv_bufsize=62500 / nal_hrd=none / filler=0 / ip_ratio=1.40 / aq=3:0.80
Language : French
Default : Yes
Forced : No
Audio
ID : 2
Format : AC-3
Format/Info : Audio Coding 3
Commercial name : Dolby Digital
Codec ID : A_AC3
Duration : 2 h 16 min
Bit rate mode : Constant
Bit rate : 448 kb/s
Channel(s) : 6 channels
Channel layout : L R C LFE Ls Rs
Sampling rate : 48.0 kHz
Frame rate : 31.250 FPS (1536 SPF)
Bit depth : 16 bits
Compression mode : Lossy
Stream size : 437 MiB (21%)
Title : RUS | Лицензия
Language : Russian
Service kind : Complete Main
Default : Yes
Forced : No
Text #1
ID : 3
Format : UTF-8
Codec ID : S_TEXT/UTF8
Codec ID/Info : UTF-8 Plain Text
Duration : 2 h 8 min
Bit rate : 0 b/s
Count of elements : 8
Stream size : 594 Bytes (0%)
Title : Forced
Language : Russian
Default : Yes
Forced : No
Text #2
ID : 4
Format : UTF-8
Codec ID : S_TEXT/UTF8
Codec ID/Info : UTF-8 Plain Text
Duration : 2 h 15 min
Bit rate : 64 b/s
Count of elements : 1485
Stream size : 64.2 KiB (0%)
Title : SDH
Language : Russian
Default : No
Forced : No
Text #3
ID : 5
Format : UTF-8
Codec ID : S_TEXT/UTF8
Codec ID/Info : UTF-8 Plain Text
Duration : 2 h 8 min
Bit rate : 34 b/s
Count of elements : 1036
Stream size : 32.6 KiB (0%)
Title : SDH
Language : English
Default : No
Forced : No
Menu
00:00:00.000 : :Chapter 1
00:17:18.916 : :Chapter 2
00:34:18.541 : :Chapter 3
00:50:42.375 : :Chapter 4
01:07:19.583 : :Chapter 5
01:25:18.000 : :Chapter 6
01:36:17.958 : :Chapter 7
01:47:06.708 : :Chapter 8
02:03:34.958 : :Chapter 9
02:07:12.125 : :Chapter 10
02:16:19.500 : :Chapter 11
Релиз от: &
Автор релиза:
Профиль [ЛС]
Показать сообщения:    

Текущее время: 16-Сен 11:19

Часовой пояс: UTC ± 0



Вы не можете начинать темы
Вы не можете отвечать на сообщения
Вы не можете редактировать свои сообщения
Вы не можете удалять свои сообщения
Вы не можете голосовать в опросах
Вы не можете прикреплять файлы к сообщениям
Вы не можете скачивать файлы