Статистика раздачи
Размер:  6,18 GB   |    Зарегистрирован:  9 месяцев 5 дней   |    Скачан:  0 раз

Полного источника не было: Никогда

 
   
 
 

tvoja_zaja ®

Пол:
Не указан
Стаж:
9 месяцев 6 дней
Сообщений:
126

Том и Джерри: Комедийное шоу / The Tom and Jerry Comedy Show- Страна: США
Жанр: Приключения, комедия, семейный
Продолжительность: 00:17:12
Года выпуска: 1980-1982
Перевод: Профессиональный (многоголосый закадровый) [РТР]
Субтитры: Отсутствуют
Русские субтитры: нет
Режиссёр: Гвен Ветцлер / Gwen Wetzler
Описание: Сюжет большинства серий мультсериала основан на тщетных попытках Тома поймать мышонка на увечьях и разрушениях, которые из всего этого следуют. Поскольку в некоторых сериях персонажи довольно мирно уживаются между собой, остаётся непонятным, за что Том постоянно преследует Джерри. Надо признать, что погони доставляют удовольствие им обоим.-Альтернативные раздачи
Семпл-Качество: DVB
Формат: MPG
Видео: MPEG2, 720x576, 25.000 fps, 6.093 Kbps
Аудио: MP2, 48.0 KHz, 2 ch, 192 Kbps-

Список серий

07. Under the Big Top / Lumber Jerks / Gopher It, Tom
08. Snowbrawl / Getting the Foot / Kitty Hawk Kitty
09. Get Along, Little Jerry / Star-Crossed Wolf / Spike's Birthday
10. No Museum Peace / A Day at the Bakery / Mouse Over Miami
11. The Trojan Dog / Foreign Legion Droopy (отсутствует) / Pie in the Sky
12. Save That Mouse / Old Mother Hubbard / Say What?
13. Superstocker (отсутствует) / Droopy's Good Luck Charm (отсутствует) / The Great Mousini
14. Jerry's Country Cousin / The Great Diamond Heist / Mechanical Failure
15. A Connecticut Mouse in King Arthur's Cork / The Great Train Rubbery / Stage Struck

Подробные технические данные

General
Complete name : D:\IPTV\Том и Джерри. Комедийное шоу\The Tom and Jerry Comedy Show.e07a.mpg
Format : MPEG-PS
File size : 263 MiB
Duration : 5mn 44s
Overall bit rate mode : Variable
Overall bit rate : 6 413 Kbps
Video
ID : 224 (0xE0)
Format : MPEG Video
Format version : Version 2
Format profile : Main@Main
Format settings, BVOP : Yes
Format settings, Matrix : Custom
Format settings, GOP : Variable
Format settings, picture st : Frame
Duration : 5mn 44s
Bit rate mode : Variable
Bit rate : 6 093 Kbps
Maximum bit rate : 15.0 Mbps
Width : 720 pixels
Height : 576 pixels
Display aspect ratio : 4:3
Frame rate : 25.000 fps
Standard : PAL
Color space : YUV
Chroma subsampling : 4:2:0
Bit depth : 8 bits
Scan type : Interlaced
Scan order : Top Field First
Compression mode : Lossy
Bits/(Pixel*Frame) : 0.588
Time code of first frame : 00:00:00:00
Time code source : Group of pictures header
GOP, Open/Closed : Open
Stream size : 250 MiB (95%)
GOP, Open/Closed of first f : Closed
Audio
ID : 192 (0xC0)
Format : MPEG Audio
Format version : Version 1
Format profile : Layer 2
Duration : 5mn 44s
Bit rate mode : Constant
Bit rate : 192 Kbps
Channel(s) : 2 channels
Sampling rate : 48.0 KHz
Compression mode : Lossy
Delay relative to video : -26ms
Stream size : 7.88 MiB (3%)

Скриншоты

[cybertorrent.ru].t2299.torrent 
Торрент: Зарегистрирован [ 2018-02-16 11:35 ] · BF89FAE51D5183F2D8ECCD5DE8B6DF71DD5C7CD6

Скачать .torrent

Скачать

11 KB

Статус: проверено
Скачан: 0 раз
Размер: 6,18 GB
Профиль [ЛС]
Показать сообщения:    

Текущее время: 21-Ноя 14:40

Часовой пояс: UTC ± 0



Вы не можете начинать темы
Вы не можете отвечать на сообщения
Вы не можете редактировать свои сообщения
Вы не можете удалять свои сообщения
Вы не можете голосовать в опросах
Вы не можете прикреплять файлы к сообщениям
Вы можете скачивать файлы
Torrents24.ru открытый BitTorrent Torrents24.pl открытый BitTorrent CyberTorrent.ru открытый BitTorrent BtList.ru рейтинг BitTorrent трекеров Яндекс.Метрика