Статистика раздачи
Размер:  1,61 GB   |    Зарегистрирован:  3 месяца 9 дней   |    Скачан:  0 раз

Полного источника не было: Никогда

Личеров:  1  [  0 KB/s  ]  
 
   
 
 

lopster ®

Пол:
Не указан
Стаж:
3 месяца 9 дней
Сообщений:
612

Найди меня (2 серии)
Жанр: Мелодрама
Год выпуска: 2010
Продолжительность: 00:43:29+00:44:49
Режиссёр: Олег Сафаралиев
В ролях: Сергей Горобченко, Виктория Толстоганова, Екатерина Аманова, Андрей Градов, Виктор Косых, Нина Русланова, Александр Коврижных
Описание: Родители теряют дочку в парке аттракционов...
Доп. информация: Запись потока *.ts со спутника ABS-2, 75° в.д., ремукс в *.mkv программой VideoReDo.
Качество видео: DVB
Формат видео: MKV
Видео: MPEG2 Video, 704(768)x576 (4:3), 25,000 кадров/сек, 2294 Кбит/сек
Аудио: MPEG Audio, 48,0 КГц, 192 Кбит/сек, 2 канала

MediaInfo

General
Unique ID : 204271348622303739138510270604517890631 (0x99AD3B0FC22E45D3B9A9A3756C64DA47)
Complete name : Y:\server\Torrent\НАЙДИ МЕНЯ\НАЙДИ МЕНЯ 1 (TPO).mkv
Format : Matroska
Format version : Version 2
File size : 789 MiB
Duration : 43mn 29s
Overall bit rate mode : Variable
Overall bit rate : 2 537 Kbps
Writing application : Lavf52.64.2
Writing library : Lavf52.64.2
Video
ID : 1
Format : MPEG Video
Format version : Version 2
Format profile : Main@Main
Format settings, BVOP : No
Format settings, Matrix : Custom
Codec ID : V_MPEG2
Codec ID/Info : MPEG 1 or 2 Video
Duration : 43mn 29s
Bit rate mode : Variable
Bit rate : 2 294 Kbps
Maximum bit rate : 15.0 Mbps
Width : 704 pixels
Height : 576 pixels
Display aspect ratio : 4:3
Original display aspect ratio : 4:3
Frame rate : 25.000 fps
Standard : PAL
Color space : YUV
Chroma subsampling : 4:2:0
Bit depth : 8 bits
Scan type : Interlaced
Scan order : Top Field First
Compression mode : Lossy
Bits/(Pixel*Frame) : 0.226
Stream size : 714 MiB (90%)
Default : Yes
Forced : No
Audio
ID : 2
Format : MPEG Audio
Format version : Version 1
Format profile : Layer 2
Codec ID : A_MPEG/L2
Codec ID/Hint : MP2
Duration : 43mn 29s
Bit rate mode : Constant
Bit rate : 192 Kbps
Channel(s) : 2 channels
Sampling rate : 48.0 KHz
Compression mode : Lossy
Delay relative to video : -1mn 5s
Stream size : 59.7 MiB (8%)
Language : Russian
Default : Yes
Forced : No
General
Unique ID : 21678369493377509699774488427289598304 (0x104F1A22EA8AE06F2D39BEC3DA6B5960)
Complete name : Y:\server\Torrent\НАЙДИ МЕНЯ\НАЙДИ МЕНЯ 2 (TPO).mkv
Format : Matroska
Format version : Version 2
File size : 859 MiB
Duration : 44mn 49s
Overall bit rate mode : Variable
Overall bit rate : 2 678 Kbps
Writing application : Lavf52.64.2
Writing library : Lavf52.64.2
Video
ID : 1
Format : MPEG Video
Format version : Version 2
Format profile : Main@Main
Format settings, BVOP : No
Format settings, Matrix : Custom
Codec ID : V_MPEG2
Codec ID/Info : MPEG 1 or 2 Video
Duration : 44mn 49s
Bit rate mode : Variable
Bit rate : 2 432 Kbps
Maximum bit rate : 15.0 Mbps
Width : 704 pixels
Height : 576 pixels
Display aspect ratio : 4:3
Original display aspect ratio : 4:3
Frame rate : 25.000 fps
Standard : PAL
Color space : YUV
Chroma subsampling : 4:2:0
Bit depth : 8 bits
Scan type : Interlaced
Scan order : Top Field First
Compression mode : Lossy
Bits/(Pixel*Frame) : 0.240
Stream size : 780 MiB (91%)
Default : Yes
Forced : No
Audio
ID : 2
Format : MPEG Audio
Format version : Version 1
Format profile : Layer 2
Codec ID : A_MPEG/L2
Codec ID/Hint : MP2
Duration : 44mn 49s
Bit rate mode : Constant
Bit rate : 192 Kbps
Channel(s) : 2 channels
Sampling rate : 48.0 KHz
Compression mode : Lossy
Delay relative to video : -1mn 5s
Stream size : 61.6 MiB (7%)
Language : Russian
Default : Yes
Forced : No

Скриншот c названием фильма

[cybertorrent.ru].t230.torrent 
Торрент: Зарегистрирован [ 2018-02-15 15:34 ] · 153133E2AD9B78A8DE5FEBA2BAD1023504A32AEF

Скачать .torrent

Скачать

17 KB

Статус: проверено
Скачан: 0 раз
Размер: 1,61 GB
Профиль [ЛС]
Показать сообщения:    

Текущее время: 25-Май 08:57

Часовой пояс: UTC ± 0



Вы не можете начинать темы
Вы не можете отвечать на сообщения
Вы не можете редактировать свои сообщения
Вы не можете удалять свои сообщения
Вы не можете голосовать в опросах
Вы не можете прикреплять файлы к сообщениям
Вы можете скачивать файлы