Статистика раздачи
Размер:  112 MB   |    Зарегистрирован:  5 месяцев 4 дня   |    Скачан:  0 раз

Полного источника не было: Никогда

Личеров:  1  [  0 KB/s  ]  
 
   
 
 

soda ®

Пол:
Не указан
Стаж:
5 месяцев 5 дней
Сообщений:
205

Футон
Futon- Страна: Япония
Год выпуска: 2012 г.
Жанр: драма, сюрреализм
Тип: Movie
Продолжительность: 00:06:01
Режиссер: Ёрико Мицушири / Yoriko Mizushiri
Описание: Футон - традиционная японская постельная принадлежность в виде толстого хлопчатобумажного матраца, расстилаемого на ночь для сна и убираемого утром в шкаф. Такие матрацы служили не только в качестве постели, но и использовались знатными японцами в качестве дорогих подарков. Подобные подарки богатые мужчины часто дарили женщинам, чтобы соблазнить их. Также их дарили проституткам: чем более высокого разряда была проститутка, тем больше хлопчатобумажных матрацев она могла получить за свою работу.
Доп. информация: Arte HD
Награды: включен в шорт-лист премии "Оскар" 2014 в категории "Лучший короткометражный анимационный фильм"; награда Renzo Kinoshita Prize - Hiroshima International Animation Festival 2012 + номинация на Гран-при; номинация на приз "Кристалл" за лучший короткометражный фильм Annecy International Animated Film Festival 2013; номинация на приз "Золотой всадник" за лучший анимационный короткометражный фильм Dresden Film Festival 2014.

Качество: HDTVRip-AVC
Тип релиза: Без хардсаба
Формат видео: MKV
Релиз/Автор рипа: ralf124c41+
Совместимость с бытовыми плеерами: Да
Видео: AVC (H.264), 1280x720 (16:9), 25 fps, ~2400 kbps, 8 бит
Аудио: AC3, 2 ch, 48 kHz, 192.00 kbps Язык музыкальное сопровождение

Подробные тех. данные

Общее
Уникальный идентификатор : 194249574825946960755652295294058273238 (0x92231B76F9D3FDBE81BFF970C8EC99D6)
Полное имя : E:\My Torrents 2\[apreder]MINI_MOVIES_09\[apreder]MM_Futon(2012)HDTVRip.mkv
Формат : Matroska
Версия формата : Version 2
Размер файла : 112 Мбайт
Продолжительность : 6 м. 1 с.
Общий поток : 2591 Кбит/сек
Дата кодирования : UTC 2015-04-22 18:39:07
Программа кодирования : mkvmerge v7.8.0 ('River Man') 64bit built on Mar 27 2015 16:31:37
Библиотека кодирования : libebml v1.3.1 + libmatroska v1.4.2
Видео
Идентификатор : 1
Формат : AVC
Формат/Информация : Advanced Video Codec
Профиль формата : High@L4.1
Параметр CABAC формата : Да
Параметр ReFrames формата : 9 кадров
Идентификатор кодека : V_MPEG4/ISO/AVC
Продолжительность : 6 м. 1 с.
Битрейт : 2400 Кбит/сек
Ширина : 1280 пикселей
Высота : 720 пикселей
Соотношение сторон : 16:9
Режим частоты кадров : Постоянный
Частота кадров : 25,000 кадров/сек
Цветовое пространство : YUV
Субдискретизация насыщенности : 4:2:0
Битовая глубина : 8 бит
Тип развёртки : Прогрессивная
Бит/(Пиксели*Кадры) : 0.104
Размер потока : 101 Мбайт (91%)
Библиотека кодирования : x264 core 146 r2538 121396c
Настройки программы : cabac=1 / ref=9 / deblock=1:-1:-1 / analyse=0x3:0x133 / me=umh / subme=10 / psy=1 / psy_rd=1.00:0.15 / mixed_ref=1 / me_range=24 / chroma_me=1 / trellis=2 / 8x8dct=1 / cqm=0 / deadzone=21,11 / fast_pskip=1 / chroma_qp_offset=-3 / threads=6 / lookahead_threads=1 / sliced_threads=0 / nr=0 / decimate=1 / interlaced=0 / bluray_compat=0 / constrained_intra=0 / bframes=8 / b_pyramid=2 / b_adapt=2 / b_bias=0 / direct=3 / weightb=1 / open_gop=0 / weightp=2 / keyint=250 / keyint_min=25 / scenecut=40 / intra_refresh=0 / rc_lookahead=60 / rc=2pass / mbtree=1 / bitrate=2400 / ratetol=1.0 / qcomp=0.60 / qpmin=0 / qpmax=69 / qpstep=4 / cplxblur=20.0 / qblur=0.5 / vbv_maxrate=62500 / vbv_bufsize=78125 / nal_hrd=none / filler=0 / ip_ratio=1.40 / aq=1:1.00
Default : Да
Forced : Нет
Аудио
Идентификатор : 2
Формат : AC-3
Формат/Информация : Audio Coding 3
Расширение режима : CM (complete main)
Параметр Endianness формата : Big
Идентификатор кодека : A_AC3
Продолжительность : 6 м. 1 с.
Вид битрейта : Постоянный
Битрейт : 192 Кбит/сек
Каналы : 2 канала
Расположение каналов : Front: L R
Частота : 48,0 КГц
Битовая глубина : 16 бит
Метод сжатия : С потерями
Размер потока : 8,26 Мбайт (7%)
Default : Да
Forced : Нет

Скриншоты

Резервные скриншоты

-[2'236]
[cybertorrent.ru].t2302.torrent 
Торрент: Зарегистрирован [ 2018-02-16 11:35 ] · 7559A9CD588D5EF62A4C6763B9346FB38FC3FC00

Скачать .torrent

Скачать

18 KB

Статус: проверено
Скачан: 0 раз
Размер: 112 MB
Профиль [ЛС]
Показать сообщения:    

Текущее время: 21-Июл 04:13

Часовой пояс: UTC ± 0



Вы не можете начинать темы
Вы не можете отвечать на сообщения
Вы не можете редактировать свои сообщения
Вы не можете удалять свои сообщения
Вы не можете голосовать в опросах
Вы не можете прикреплять файлы к сообщениям
Вы можете скачивать файлы