BitTorrent клиенты



Реактивный дракон / The Dragon Missile / Fei long zhan (Менг Хуа Хо / Meng Hua Ho) [1976, Гонконг, боевые искусства, WEB-DL 1080p] VO (Jet) + Sub Eng + Eng + Original Chi

Ответить на тему
 
Автор Сообщение

Keeper ®

Пол: Не указан

Стаж: 1 год

Сообщений: 499

Создавать темы 07-Фев-2018 20:46

[Цитировать]

Реактивный дракон / The Dragon Missile / Fei long zhan
Страна: Гонконг
Студия: Shaw Brothers
Жанр: боевые искусства
Год выпуска: 1976
Продолжительность: 01:22:03
Перевод: Одноголосый закадровый Jet
Субтитры: английские
Оригинальная аудиодорожка: китайский
Режиссер: Менг Хуа Хо / Meng Hua Ho
В ролях: Мей Хуа Чен, Янг Чианг, Норман Чу, Мей Шенг Фэн, Фенг Ку, Ли Жень Хер, Цан Си Ку, Вэнь Лаи, Ли Сау Ки, Терри Лью, Тони Лю, Лье Ло, Вэй Лью, Оу-Янг Ша-Фэй, Вонг Хань Чан, Чих-Чинг Янг, Нэн Си Йен
Описание: Один влиятельный господин болен смертельной болезнью. Прогнозы врачей неутешительны. Через семь дней господин умрет. Помочь ему может только одно лекарство — порошок, сделанный из ротанговой пальмы долголетия. Объявлена награда и семь мастеров боевых искусств отправляются в путь. Они жаждут славы и богатства и не остановятся ни перед чем… (Jet)
II Сэмпл II IMDB II
Релиз группа:

Тип релиза: WEB-DL 1080p
Контейнер: MKV
Видео: AVC / 1920x816 / 2.35:1 / 25.0fps / 4455Kbps / High@L4
Аудио 1: AC3 / 48.0 KHz / 2ch. / 192kbps / Rus / VO / Jet
Аудио 2: AAC-LC / 48.0 KHz / 2ch. / 98kbps / Eng
Аудио 3: AAC-LC / 48.0 KHz / 2ch. / 100kbps / Mandarin
Формат субтитров: softsub (SRT)

MediaInfo

Общее
Уникальный идентификатор : 197023330919253026221021925792245486757 (0x94395032DBA1986C87EF6B3DE4CA14A5)
Полное имя : E:\torrent\_HD\temp\The.Dragon.Missile.1976.WEB-DL.1080p_by_vedigo.mkv
Формат : Matroska
Версия формата : Version 4 / Version 2
Размер файла : 2,78 Гбайт
Продолжительность : 1 ч. 22 м.
Общий поток : 4849 Кбит/сек
Название фильма : The.Dragon.Missile.1976.WEB-DL.1080p_by_vedigo
Дата кодирования : UTC 2016-06-15 07:10:40
Программа кодирования : mkvmerge v9.2.0 ('Photograph') 64bit
Библиотека кодирования : libebml v1.3.3 + libmatroska v1.4.4
Видео
Идентификатор : 1
Формат : AVC
Формат/Информация : Advanced Video Codec
Профиль формата : High@L4
Параметр CABAC формата : Да
Параметр ReFrames формата : 5 кадров
Идентификатор кодека : V_MPEG4/ISO/AVC
Продолжительность : 1 ч. 22 м.
Битрейт : 4455 Кбит/сек
Ширина : 1920 пикселей
Высота : 816 пикселей
Соотношение сторон : 2,35:1
Режим частоты кадров : Постоянный
Частота кадров : 25,000 кадров/сек
Цветовое пространство : YUV
Субдискретизация насыщенности : 4:2:0
Битовая глубина : 8 бит
Тип развёртки : Прогрессивная
Бит/(Пиксели*Кадры) : 0.114
Размер потока : 2,55 Гбайт (92%)
Заголовок : The.Dragon.Missile.1976.WEB-DL.1080p_by_vedigo
Default : Да
Forced : Нет
Цветовой диапазон : Limited
Основные цвета : BT.709
Характеристики трансфера : BT.709
Коэффициенты матрицы : BT.709
Аудио #1
Идентификатор : 2
Формат : AC-3
Формат/Информация : Audio Coding 3
Расширение режима : CM (complete main)
Параметр Endianness формата : Big
Идентификатор кодека : A_AC3
Продолжительность : 1 ч. 22 м.
Вид битрейта : Постоянный
Битрейт : 192 Кбит/сек
Каналы : 2 канала
Расположение каналов : Front: L R
Частота : 48,0 КГц
Частота кадров : 31,250 кадров/сек (1536 spf)
Метод сжатия : С потерями
Размер потока : 113 Мбайт (4%)
Заголовок : VO @ Jet
Язык : Russian
Default : Да
Forced : Нет
Аудио #2
Идентификатор : 3
Формат : AAC
Формат/Информация : Advanced Audio Codec
Профиль формата : LC
Идентификатор кодека : A_AAC
Продолжительность : 1 ч. 22 м.
Битрейт : 98,4 Кбит/сек
Каналы : 2 канала
Расположение каналов : Front: L R
Частота : 48,0 КГц
Частота кадров : 46,875 кадров/сек (1024 spf)
Метод сжатия : С потерями
Размер потока : 57,7 Мбайт (2%)
Заголовок : Eng
Язык : English
Default : Нет
Forced : Нет
Аудио #3
Идентификатор : 4
Формат : AAC
Формат/Информация : Advanced Audio Codec
Профиль формата : LC
Идентификатор кодека : A_AAC
Продолжительность : 1 ч. 22 м.
Битрейт : 99,9 Кбит/сек
Каналы : 2 канала
Расположение каналов : Front: L R
Частота : 48,0 КГц
Частота кадров : 46,875 кадров/сек (1024 spf)
Метод сжатия : С потерями
Размер потока : 58,6 Мбайт (2%)
Заголовок : Mandarin
Язык : Chinese
Default : Нет
Forced : Нет
Текст
Идентификатор : 5
Формат : UTF-8
Идентификатор кодека : S_TEXT/UTF8
Идентификатор кодека/Информация : UTF-8 Plain Text
Продолжительность : 1 ч. 16 м.
Битрейт : 33 бит/сек
Count of elements : 765
Размер потока : 18,5 Кбайт (0%)
Заголовок : Eng
Язык : English
Default : Нет
Forced : Нет
Меню
00:00:00.000 : en:1
00:09:37.840 : en:2
00:20:17.200 : en:3
00:29:59.440 : en:4
00:39:43.200 : en:5
00:49:31.440 : en:6
00:59:43.040 : en:7
01:10:15.080 : en:8
01:21:35.960 : en:9

Скриншоты


Сравнение с DVD

DVD-------------------------------WEB-DL


[Профиль] [ЛС]
Показать сообщения:    
Ответить на тему

Текущее время: 20-Фев 00:16

Часовой пояс: UTC + 3



Вы не можете начинать темы
Вы не можете отвечать на сообщения
Вы не можете редактировать свои сообщения
Вы не можете удалять свои сообщения
Вы не можете голосовать в опросах
Вы не можете прикреплять файлы к сообщениям
Вы можете скачивать файлы