Статистика раздачи
Размер:  2,37 GB   |    Зарегистрирован:  3 месяца 9 дней   |    Скачан:  0 раз

Полного источника не было: Никогда

Личеров:  1  [  0 KB/s  ]  
 
   
 
 

lopster ®

Пол:
Не указан
Стаж:
3 месяца 9 дней
Сообщений:
612

Уснувший пассажир
Жанр: детектив
Год выпуска: 1993
Продолжительность: 01:17:20
Режиссёр: Ярополк Лапшин
В ролях: Анатолий Кузнецов, Ольга Остроумова, Владимир Кашпур, Владимир Кузнецов (VI), Игорь Шарапов, Шавкат Газиев, Александр Пашутин, Сейдулла Молдаханов, Николай Шушарин, Виталий Краев, Валерий Храмцов
Описание: На затерянном в степи аэродроме совершает непредвиденную посадку самолет, следующий рейсом из Москвы в Сингапур - столицу одного из азиатских государств. Пока экипаж производит ремонт, пассажиры прогуливаются неподалеку. Вскоре в салоне воздушного судна находят труп иностранного туриста, летевшего первым классом.
Доп. информация: Запись потока *.ts со спутника Экспресс АМ6, 53° в.д., ремукс в *.mkv программой VideoReDo.
Качество видео: DVB
Формат видео: MKV
Видео: MPEG2 Video, 720(1024)x576 (16:9), 25,000 кадров/сек, 4 102 Кбит/сек
Аудио: MPEG Audio, 48,0 КГц, 192 Кбит/сек, 2 канала

MediaInfo

General
Unique ID : 97704626479186885993191641313557303355 (0x49813A016B1E9376523382A6DEE3503B)
Complete name : Y:\server\Torrent\УСНУВШИЙ ПАССАЖИР (1TVRUS CIS).mkv
Format : Matroska
Format version : Version 2
File size : 2.37 GiB
Duration : 1h 17mn
Overall bit rate mode : Variable
Overall bit rate : 4 381 Kbps
Writing application : Lavf52.64.2
Writing library : Lavf52.64.2
Video
ID : 1
Format : MPEG Video
Format version : Version 2
Format profile : Main@Main
Format settings, BVOP : No
Format settings, Matrix : Custom
Codec ID : V_MPEG2
Codec ID/Info : MPEG 1 or 2 Video
Duration : 1h 17mn
Bit rate mode : Variable
Bit rate : 4 102 Kbps
Maximum bit rate : 15.0 Mbps
Width : 720 pixels
Height : 576 pixels
Display aspect ratio : 16:9
Original display aspect ratio : 16:9
Frame rate : 25.000 fps
Standard : PAL
Color space : YUV
Chroma subsampling : 4:2:0
Bit depth : 8 bits
Scan type : Interlaced
Scan order : Top Field First
Compression mode : Lossy
Bits/(Pixel*Frame) : 0.396
Stream size : 2.22 GiB (94%)
Default : Yes
Forced : No
Audio
ID : 2
Format : MPEG Audio
Format version : Version 1
Format profile : Layer 2
Codec ID : A_MPEG/L2
Codec ID/Hint : MP2
Duration : 1h 17mn
Bit rate mode : Constant
Bit rate : 192 Kbps
Channel(s) : 2 channels
Sampling rate : 48.0 KHz
Compression mode : Lossy
Delay relative to video : -1mn 5s
Stream size : 106 MiB (4%)
Language : English
Default : Yes
Forced : No

Скриншот c названием фильма

[cybertorrent.ru].t232.torrent 
Торрент: Зарегистрирован [ 2018-02-15 15:34 ] · 92AFCB662B3D26BA31E089C18E4F30C247C10318

Скачать .torrent

Скачать

12 KB

Статус: проверено
Скачан: 0 раз
Размер: 2,37 GB
Профиль [ЛС]
Показать сообщения:    

Текущее время: 25-Май 08:53

Часовой пояс: UTC ± 0



Вы не можете начинать темы
Вы не можете отвечать на сообщения
Вы не можете редактировать свои сообщения
Вы не можете удалять свои сообщения
Вы не можете голосовать в опросах
Вы не можете прикреплять файлы к сообщениям
Вы можете скачивать файлы