Статистика раздачи
Нет
 
     
 
 

MAGNAT ®

Пол:
Мужской
Стаж:
2 года 5 месяцев
Сообщений:
10768

Откуда: Москва

Вместе навсегда
Год выпуска: 2020
Страна: Россия
Жанр: мелодрама
Продолжительность: ~00:52:00
Субтитры: нет
Режиссёр: Глеб Якубовский
В ролях: Алёна Константинова, Петр Рыков, Артур Сопельник, Олег Масленников-Войтов, Вероника Пляшкевич, Татьяна Колганова, Арина Постникова, Елена Оболенская, Евгения Каверау, Виталий Егоров.
Описание: Катя и Саша любят друг друга и собираются пожениться. Однако во время знакомства родителей, выясняется, что их семьи — заклятые враги. К тому же, между влюбленными неожиданно встает богатый бизнесмен Роман Гордеев, владелец подпольного казино. Гордеев пойдёт на всё, чтобы завоевать Катю. Но Катя предана Саше, а ее младшая сестра Лиза буквально одержима Романом. Все обстоятельства против них и влюбленные вынуждены расстаться, но смогут ли Катя и Саша отказаться друг от друга?...
Качество: HDTV 1080i
Формат: TS
Видео кодек: H.264
Аудио кодек: MP2
Видео: MPEG4 Video (H264), 1920х1080, 25 fps, ~5900 Kbps, bit/pixel 0.113
Аудио: MP2, 48000Hz, stereo, 192 kbps, 2 ch

MI

Общее
Идентификатор : 1 (0x1)
Полное имя : D:\Vmeste navsegda 2020 HDTV 1080i ( rip by mutabor369 )\Vmeste navsegda..01 seriya.2020.HDTV 1080i.by.mutabor369.ts
Формат : MPEG-TS
Размер файла : 2,29 Гбайт
Продолжительность : 51 м. 15 с.
Режим общего битрейта : Переменный
Общий поток : 6389 Кбит/сек
Видео
Идентификатор : 211 (0xD3)
Идентификатор меню : 1 (0x1)
Формат : AVC
Формат/Информация : Advanced Video Codec
Профиль формата : High@L4
Настройки формата : CABAC / 4 Ref Frames
Параметр CABAC формата : Да
Параметр RefFrames формата : 4 кадра
Идентификатор кодека : 27
Продолжительность : 51 м. 15 с.
Битрейт : 5880 Кбит/сек
Ширина : 1920 пикселей
Высота : 1080 пикселей
Соотношение сторон : 16:9
Частота кадров : 25,000 кадров/сек
Стандарт вещания : Component
Цветовое пространство : YUV
Субдискретизация насыщенности : 4:2:0
Битовая глубина : 8 бит
Тип развёртки : Чересстрочная
Метод сохранения типа развёртки : Раздельные поля
Порядок развёртки : Верхнее поле первое
Бит/(Пиксели*Кадры) : 0.113
Размер потока : 2,11 Гбайт (92%)
Цветовой диапазон : Limited
Основные цвета : BT.709
Характеристики трансфера : BT.709
Коэффициенты матрицы : BT.709
Аудио
Идентификатор : 221 (0xDD)
Идентификатор меню : 1 (0x1)
Формат : MPEG Audio
Версия формата : Version 1
Профиль формата : Layer 2
Идентификатор кодека : 3
Продолжительность : 51 м. 15 с.
Вид битрейта : Постоянный
Битрейт : 192 Кбит/сек
Каналы : 2 канала
Частота : 48,0 КГц
Частота кадров : 41,667 кадра/сек (1152 SPF)
Метод сжатия : С потерями
Размер потока : 70,4 Мбайт (3%)
Язык : Russian

Скриншоты

Профиль [ЛС]
Показать сообщения:    

Текущее время: 16-Сен 10:08

Часовой пояс: UTC ± 0



Вы не можете начинать темы
Вы не можете отвечать на сообщения
Вы не можете редактировать свои сообщения
Вы не можете удалять свои сообщения
Вы не можете голосовать в опросах
Вы не можете прикреплять файлы к сообщениям
Вы не можете скачивать файлы