Статистика раздачи
Размер:  1,46 GB   |    Зарегистрирован:  3 месяца 7 дней   |    Скачан:  0 раз

Полного источника не было: Никогда

Личеров:  3  [  0 KB/s  ]  
 
   
 
 

lopster ®

Пол:
Не указан
Стаж:
3 месяца 7 дней
Сообщений:
612

Любить нельзя забыть
Жанр: Мелодрама
Год выпуска: 2013
Продолжительность: 01:27:39
Режиссёр: Вячеслав Лавров
В ролях: Наталия Антонова, Дмитрий Бедерин, Полина Тарасова, Светлана Галка, Елена Стародуб, Руслан Джайбеков, Павел Шингарев, Анжелика Волчкова, Ева Авеева, Людмила Гаврилова, Александр Курицын, Олег Леушин, Сергей Чурбаков, Светлана Варецкая, Вера Молчанова, Вячеслав Лавров, Даниил Дунц, Марина Коташенко
Описание: Марина еще молодая женщина, но уже живет с мыслью, что вся жизнь прожита и ничего нового впереди ее не ждет. Она воспитывает двенадцатилетнюю дочь Ксюшу, и работает учителем в художественной школе. Однажды она знакомится с Никитой. И у них начинается роман. Никита очень сильно влюблен в Марину и хочет на ней жениться. И все бы хорошо, вот только разница между влюбленными значительная, Марине 37, а Никите всего 20. Это больше всего и смущает Марину. Она не видит будущего между их отношениями и в конце концов сбегает от своей любви в город своих родителей. А там судьба дает ей еще один шанс стать счастливой. Родители знакомят ее с Игорем. Он положительный во всех отношениях мужчина и влюблен в Марину. Пара собирается пожениться. Но вот отступит ли просто так Никита, отпустит ли он любимую женщину без борьбы за нее?
Доп. информация:
Автор релиза -
Источник аудио и видео для рипа - HDTV 1080i TS - моя запись с канала Наш Кинороман HD - http://cybertorrent.ru/viewtopic.php?t=5373905
За обложку спасибо Decom



Сэмпл: https://yadi.sk/i/3jIgltgw3G5WQg
Рекламы нет!
Качество видео: HDTVRip
Формат видео: AVI
Видео: XviD, 720x400 (16:9), 25.000 fps, 1920 kbps, 0.267 bit/pixel
Аудио: Русский AC3, 48000 Гц, 6ch, 448 kbps

MediaInfo

Общее
Полное имя : D:\Любить.нельзя.забыть.2012.HDTVRip-ylnian.avi
Формат : AVI
Формат/Информация : Audio Video Interleave
Размер файла : 1,46 Гбайт
Продолжительность : 1 ч. 27 м.
Общий поток : 2378 Кбит/сек
Название фильма : Любить.нельзя.забыть.2012.HDTVRip-ylnian
Программа кодирования : VirtualDubMod 1.5.10.2 (build 2540/release)
Библиотека кодирования : VirtualDubMod build 2540/release
Видео
Идентификатор : 0
Формат : MPEG-4 Visual
Профиль формата : Advanced Simple@L5
Параметр BVOP формата : 1
Параметр QPel формата : Нет
Параметр GMC формата : Без точки перехода
Параметр матрицы формата : Default (MPEG)
Идентификатор кодека : XVID
Идентификатор кодека/Подсказка : XviD
Продолжительность : 1 ч. 27 м.
Битрейт : 1920 Кбит/сек
Ширина : 720 пикселей
Высота : 400 пикселей
Соотношение сторон : 16:9
Частота кадров : 25,000 кадров/сек
Цветовое пространство : YUV
Субдискретизация насыщенности : 4:2:0
Битовая глубина : 8 бит
Тип развёртки : Прогрессивная
Метод сжатия : С потерями
Бит/(Пиксели*Кадры) : 0.267
Размер потока : 1,18 Гбайт (81%)
Библиотека кодирования : XviD 67
Аудио
Идентификатор : 1
Формат : AC-3
Формат/Информация : Audio Coding 3
Расширение режима : CM (complete main)
Параметр Endianness формата : Big
Идентификатор кодека : 2000
Продолжительность : 1 ч. 27 м.
Вид битрейта : Постоянный
Битрейт : 448 Кбит/сек
Каналы : 6 каналов
Расположение каналов : Front: L C R, Side: L R, LFE
Частота : 48,0 КГц
Частота кадров : 31,250 кадров/сек (1536 spf)
Метод сжатия : С потерями
Размер потока : 281 Мбайт (19%)
Выравнивание : Разделение по промежуткам
Продолжительность промежутка : 40 мс. (1,00 видеокадр)
Время предзагрузки промежутка : 500 мс.
Заголовок : RUS

Скриншот c названием фильма

[cybertorrent.ru].t234.torrent 
Торрент: Зарегистрирован [ 2018-02-15 15:34 ] · 75AB4CE294D2BA67C02F3143F5A895DAD1180177

Скачать .torrent

Скачать

15 KB

Статус: проверено
Скачан: 0 раз
Размер: 1,46 GB
Профиль [ЛС]
Показать сообщения:    

Текущее время: 23-Май 07:21

Часовой пояс: UTC ± 0



Вы не можете начинать темы
Вы не можете отвечать на сообщения
Вы не можете редактировать свои сообщения
Вы не можете удалять свои сообщения
Вы не можете голосовать в опросах
Вы не можете прикреплять файлы к сообщениям
Вы можете скачивать файлы