Статистика раздачи
Размер:  1,46 GB   |    Зарегистрирован:  3 месяца 12 дней   |    Скачан:  0 раз

Полного источника не было: Никогда

 
   
 
 

lopster ®

Пол:
Не указан
Стаж:
3 месяца 12 дней
Сообщений:
612

Мамы 3 / Open Matte
Жанр: Комедия, семейный
Год выпуска: 2014
Продолжительность: 01:28:04
Режиссёр: Георгий Малков, Эмиль Никогосян
В ролях: Анастасия Заворотнюк, Ольга Волкова, Мария Сёмкина, Гарик Харламов, Андрей Ургант, Тимур Родригез, Евгений Сморигин, Евгений Шапошников, Кристина Орса, Екатерина Волкова, Александр Уман, Егор Бортник
Описание: Героини первых двух фильмов отправляются отмечать Новый год в Прагу, однако самолет, на котором они летят, из-за погодных условий садится в маленьком польском городке. Увидев, что в городе не готовят большого и шумного праздника, они решают организовать его самостоятельно.
Доп. информация:
Автор релиза -
Источник аудио и видео для рипа - HDTV 1080i TS - моя запись с канала Наш Кинороман HD - http://cybertorrent.ru/viewtopic.php?t=5373973
Open Matte - cравнение с Blu-Ray - http://screenshotcomparison.com/comparison/203673 - большее наполнение кадра сверху и снизу!!!



Сэмпл: https://yadi.sk/i/om0HiRuB3G68ir
Рекламы нет!
Качество видео: HDTVRip
Формат видео: AVI
Видео: XviD, 704x384 (1,85:1), 25.000 fps, 1911 kbps, 0.283 bit/pixel
Аудио: Русский AC3, 48000 Гц, 6ch, 448 kbps

MediaInfo

Общее
Полное имя : D:\Мамы.3.2014.HDTVRip-ylnian.avi
Формат : AVI
Формат/Информация : Audio Video Interleave
Размер файла : 1,46 Гбайт
Продолжительность : 1 ч. 28 м.
Общий поток : 2369 Кбит/сек
Название фильма : Мамы.3.2014.HDTVRip-ylnian
Программа кодирования : VirtualDubMod 1.5.10.2 (build 2540/release)
Библиотека кодирования : VirtualDubMod build 2540/release
Видео
Идентификатор : 0
Формат : MPEG-4 Visual
Профиль формата : Advanced Simple@L5
Параметр BVOP формата : 1
Параметр QPel формата : Нет
Параметр GMC формата : Без точки перехода
Параметр матрицы формата : Default (MPEG)
Идентификатор кодека : XVID
Идентификатор кодека/Подсказка : XviD
Продолжительность : 1 ч. 28 м.
Битрейт : 1911 Кбит/сек
Ширина : 704 пикселя
Высота : 384 пикселя
Соотношение сторон : 1,85:1
Частота кадров : 25,000 кадров/сек
Цветовое пространство : YUV
Субдискретизация насыщенности : 4:2:0
Битовая глубина : 8 бит
Тип развёртки : Прогрессивная
Метод сжатия : С потерями
Бит/(Пиксели*Кадры) : 0.283
Размер потока : 1,18 Гбайт (81%)
Библиотека кодирования : XviD 67
Аудио
Идентификатор : 1
Формат : AC-3
Формат/Информация : Audio Coding 3
Расширение режима : CM (complete main)
Параметр Endianness формата : Big
Идентификатор кодека : 2000
Продолжительность : 1 ч. 28 м.
Вид битрейта : Постоянный
Битрейт : 448 Кбит/сек
Каналы : 6 каналов
Расположение каналов : Front: L C R, Side: L R, LFE
Частота : 48,0 КГц
Частота кадров : 31,250 кадров/сек (1536 spf)
Метод сжатия : С потерями
Размер потока : 282 Мбайт (19%)
Выравнивание : Разделение по промежуткам
Продолжительность промежутка : 40 мс. (1,00 видеокадр)
Время предзагрузки промежутка : 500 мс.
Заголовок : RUS

Скриншот c названием фильма

[cybertorrent.ru].t235.torrent 
Торрент: Зарегистрирован [ 2018-02-15 15:34 ] · B93C5FCD0592A60D0296C1A291EEFAD69CFEF6C2

Скачать .torrent

Скачать

15 KB

Статус: проверено
Скачан: 0 раз
Размер: 1,46 GB
Профиль [ЛС]
Показать сообщения:    

Текущее время: 28-Май 03:19

Часовой пояс: UTC ± 0



Вы не можете начинать темы
Вы не можете отвечать на сообщения
Вы не можете редактировать свои сообщения
Вы не можете удалять свои сообщения
Вы не можете голосовать в опросах
Вы не можете прикреплять файлы к сообщениям
Вы можете скачивать файлы