Статистика раздачи
Нет
 
     
 
 

MAGNAT ®

Пол:
Мужской
Стаж:
2 года 5 месяцев
Сообщений:
10768

Откуда: Москва

Легенды «Смертельной битвы»: Месть Скорпиона / Mortal Kombat Legends: Scorpion's Revenge
Страна: США
Жанр: мультфильм, фэнтези, боевик, приключения
Год выпуска: 2020
Продолжительность: 01:19:59
Перевод: Профессиональный (многоголосый закадровый) Good People
Оригинальная аудиодорожка: Английский
Субтитры: Русские (Полные), Английские (Full, SDH)--Режиссер: Этан Сполдинг / Ethan Spaulding--В ролях: Дженнифер Карпентер, Грэй Гриффин, Джоэл МакХэйл, Кевин Майкл Ричардсон, Стивен Блум, Дэрин Де Пол, Робин Аткин Даунс, Фред Таташиор, Джордан Родригез, Патрик Сэйтц...--Описание: Чернокнижник Шан Цзун устраивает межпространственный турнир по боевым искусствам, где победитель бросит ему вызов за судьбу их родного мира. В нем решает принять участие жаждущий отомстить за смерть семьи и клана Скорпион.-
-
Формат видео: MKV
Видео: AVC, 1152x648p (16:9), 2593 kbps, 23.976 fps, 0.145 bit/pixel.
Аудио 1: AC3 Dolby Digital, 3/2 (L,C,R,l,r) + LFE ch, 48.0 KHz, 448 Kbps.
Аудио 2: AC3 Dolby Digital, 3/2 (L,C,R,l,r) + LFE ch, 48.0 KHz, 448 Kbps.
Формат субтитров: softsub (SRT)

Скриншоты

MediaInfo/x264

x264

x264 [info]: using cpu capabilities: MMX2 SSE2Fast SSSE3 SSE4.2 AVX
x264 [info]: profile High, level 4.1, 4:2:0, 8-bit
x264 [info]: frame I:1103 Avg QP:13.72 size:109468
x264 [info]: frame P:29133 Avg QP:14.83 size: 29331
x264 [info]: frame B:84837 Avg QP:16.78 size: 6845
x264 [info]: consecutive B-frames: 4.0% 5.1% 18.4% 20.5% 17.3% 19.8% 5.6% 3.1% 1.8% 0.9% 0.9% 0.8% 0.4% 0.4% 0.3% 0.8%
x264 [info]: mb I I16..4: 6.1% 64.1% 29.8%
x264 [info]: mb P I16..4: 2.5% 14.1% 3.6% P16..4: 33.5% 16.3% 13.8% 0.8% 0.3% skip:15.1%
x264 [info]: mb B I16..4: 0.3% 0.8% 0.2% B16..8: 31.2% 9.3% 2.4% direct: 4.2% skip:51.4% L0:46.5% L1:44.5% BI: 8.9%
x264 [info]: 8x8 transform intra:67.4% inter:53.7%
x264 [info]: coded y,uvDC,uvAC intra: 73.2% 77.6% 65.8% inter: 13.2% 13.2% 4.7%
x264 [info]: i16 v,h,dc,p: 49% 16% 10% 25%
x264 [info]: i8 v,h,dc,ddl,ddr,vr,hd,vl,hu: 15% 12% 16% 8% 9% 9% 10% 9% 12%
x264 [info]: i4 v,h,dc,ddl,ddr,vr,hd,vl,hu: 14% 10% 8% 10% 14% 12% 12% 10% 12%
x264 [info]: i8c dc,h,v,p: 46% 23% 18% 14%
x264 [info]: Weighted P-Frames: Y:3.1% UV:2.5%
x264 [info]: ref P L0: 51.5% 7.1% 15.0% 6.6% 5.0% 4.0% 3.3% 2.1% 1.9% 1.7% 1.7% 0.1% 0.0%
x264 [info]: ref B L0: 65.5% 13.1% 7.3% 3.9% 3.0% 2.4% 2.0% 1.4% 1.0% 0.4%
x264 [info]: ref B L1: 92.9% 7.1%
x264 [info]: kb/s:2593.47
General
Unique ID : 178966476945824798416920990932587731753 (0x86A3B0901F88A9878C8615393B7F5B29)
Complete name : Mortal Kombat. Legends Scorpion's Revenge (2020).mkv
Format : Matroska
Format version : Version 4
File size : 1.95 GiB
Duration : 1 h 19 min
Overall bit rate : 3 492 kb/s
Movie name : Mortal Kombat Legends: Scorpion's Revenge (2020)
Encoded date : UTC 2021-05-20 07:19:05
Writing application : mkvmerge v8.1.0 ('Psychedelic Postcard') 64bit
Writing library : libebml v1.3.1 + libmatroska v1.4.2
Cover : Yes
Attachments : cover.jpg
Video
ID : 1
Format : AVC
Format/Info : Advanced Video Codec
Format profile : High@L4.1
Format settings : CABAC / 11 Ref Frames
Format settings, CABAC : Yes
Format settings, Reference : 11 frames
Codec ID : V_MPEG4/ISO/AVC
Duration : 1 h 19 min
Bit rate : 2 593 kb/s
Width : 1 152 pixels
Height : 648 pixels
Display aspect ratio : 16:9
Frame rate mode : Constant
Frame rate : 23.976 (24000/1001) FPS
Color space : YUV
Chroma subsampling : 4:2:0
Bit depth : 8 bits
Scan type : Progressive
Bits/(Pixel*Frame) : 0.145
Stream size : 1.45 GiB (74%)
Title : Mortal Kombat Legends: Scorpion's Revenge (2020) By optik.1557
Writing library : x264 core 161 r3048 b86ae3c
Encoding settings : cabac=1 / ref=11 / deblock=1:-3:-2 / analyse=0x3:0x133 / me=umh / subme=10 / psy=1 / psy_rd=1.05:0.01 / mixed_ref=1 / me_range=32 / chroma_me=1 / trellis=2 / 8x8dct=1 / cqm=0 / deadzone=21,11 / fast_pskip=0 / chroma_qp_offset=-2 / threads=6 / lookahead_threads=1 / sliced_threads=0 / nr=0 / decimate=1 / interlaced=0 / bluray_compat=0 / constrained_intra=0 / bframes=15 / b_pyramid=2 / b_adapt=2 / b_bias=0 / direct=1 / weightb=1 / open_gop=0 / weightp=2 / keyint=250 / keyint_min=23 / scenecut=40 / intra_refresh=0 / rc_lookahead=60 / rc=crf / mbtree=0 / crf=17.3 / qcomp=0.70 / qpmin=0 / qpmax=69 / qpstep=4 / vbv_maxrate=50000 / vbv_bufsize=62500 / crf_max=0.0 / nal_hrd=none / filler=0 / ip_ratio=1.40 / pb_ratio=1.30 / aq=3:0.85
Language : English
Default : Yes
Forced : No
Color range : Limited
Matrix coefficients : BT.709
Audio #1
ID : 2
Format : AC-3
Format/Info : Audio Coding 3
Commercial name : Dolby Digital
Codec ID : A_AC3
Duration : 1 h 19 min
Bit rate mode : Constant
Bit rate : 448 kb/s
Channel(s) : 6 channels
Channel layout : L R C LFE Ls Rs
Sampling rate : 48.0 kHz
Frame rate : 31.250 FPS (1536 SPF)
Compression mode : Lossy
Stream size : 256 MiB (13%)
Title : MVO. (Good People)
Language : Russian
Service kind : Complete Main
Default : Yes
Forced : No
Audio #2
ID : 3
Format : AC-3
Format/Info : Audio Coding 3
Commercial name : Dolby Digital
Codec ID : A_AC3
Duration : 1 h 19 min
Bit rate mode : Constant
Bit rate : 448 kb/s
Channel(s) : 6 channels
Channel layout : L R C LFE Ls Rs
Sampling rate : 48.0 kHz
Frame rate : 31.250 FPS (1536 SPF)
Compression mode : Lossy
Stream size : 256 MiB (13%)
Title : Original
Language : English
Service kind : Complete Main
Default : No
Forced : No
Text #1
ID : 4
Format : UTF-8
Codec ID : S_TEXT/UTF8
Codec ID/Info : UTF-8 Plain Text
Duration : 1 h 17 min
Bit rate : 66 b/s
Count of elements : 860
Stream size : 37.7 KiB (0%)
Title : UGN SUBZ Translators
Language : Russian
Default : No
Forced : No
Text #2
ID : 5
Format : UTF-8
Codec ID : S_TEXT/UTF8
Codec ID/Info : UTF-8 Plain Text
Duration : 1 h 17 min
Bit rate : 69 b/s
Count of elements : 826
Stream size : 39.3 KiB (0%)
Title : EvgeНИЧ
Language : Russian
Default : No
Forced : No
Text #3
ID : 6
Format : UTF-8
Codec ID : S_TEXT/UTF8
Codec ID/Info : UTF-8 Plain Text
Duration : 1 h 17 min
Bit rate : 70 b/s
Count of elements : 869
Stream size : 39.7 KiB (0%)
Title : AniPLague
Language : Russian
Default : No
Forced : No
Text #4
ID : 7
Format : UTF-8
Codec ID : S_TEXT/UTF8
Codec ID/Info : UTF-8 Plain Text
Duration : 1 h 17 min
Bit rate : 38 b/s
Count of elements : 868
Stream size : 21.6 KiB (0%)
Language : English
Default : No
Forced : No
Text #5
ID : 8
Format : UTF-8
Codec ID : S_TEXT/UTF8
Codec ID/Info : UTF-8 Plain Text
Duration : 1 h 17 min
Bit rate : 44 b/s
Count of elements : 1060
Stream size : 25.3 KiB (0%)
Title : SDH
Language : English
Default : No
Forced : No
Menu
00:00:00.000 : en:Глава 01
00:09:21.978 : en:Глава 02
00:19:53.567 : en:Глава 03
00:28:12.107 : en:Глава 04
00:35:54.277 : en:Глава 05
00:45:51.081 : en:Глава 06
00:55:18.690 : en:Глава 07
01:04:28.447 : en:Глава 08
01:13:56.723 : en:Глава 09
01:17:22.429 : en:Глава 10
Профиль [ЛС]
Показать сообщения:    

Текущее время: 16-Сен 11:15

Часовой пояс: UTC ± 0



Вы не можете начинать темы
Вы не можете отвечать на сообщения
Вы не можете редактировать свои сообщения
Вы не можете удалять свои сообщения
Вы не можете голосовать в опросах
Вы не можете прикреплять файлы к сообщениям
Вы не можете скачивать файлы