Статистика раздачи
Размер:  2,18 GB   |    Зарегистрирован:  3 месяца 7 дней   |    Скачан:  0 раз
Сидов:  2  [  0 KB/s  ]   Личеров:  2  [  0 KB/s  ]  
 
   
 
 

lopster ®

Пол:
Не указан
Стаж:
3 месяца 7 дней
Сообщений:
612

Пять невест- Жанр: комедия
Год выпуска: 2011
Продолжительность: 01:43:19
Режиссёр: Карен Оганесян
В ролях: Данила Козловский, Елизавета Боярская, Артур Смольянинов, Светлана Ходченкова, Владимир Яглыч, Юлия Пересильд, Александр Лойе, Ксения Роменкова,Хорен Левонян, Ирина Пегова, Марина Голуб,Андрей Федорцов, Анна Табанина, Михаил Горевой, Валерий Золотухин, Виктор Молчан, Игорь Савочкин,Константин Воробьёв, Алексей Дмитриев, Анна Цуканова, Светлана Никифорова, Геннадий Фомин, Сергей Жбанков, Борис Гергалов, Тамара Миронова, Александр Сухоцкий, Роман Садчило, Александр Брухацкий, Светлана Некипелова, Алеся Пуховая, Олег Ткачёв, Валерий Кащеев
Описание: Май 1945 года. Вся страна ликует и строит планы на новую послевоенную жизнь. Счастливые воины-победители, дошедшие до Берлина, мечтают вернуться героями домой. Но их не спешат отпускать… Очень расстроены этим обстоятельством бравые летчики-истребители Вадик, Леша, Гарик, Ваня и Миша. Ведь в их отсутствие всех красивых девчонок могут разобрать!
Леше Каверину повезло — его отправляют в командировку на Родину. У друзей рождается авантюрный план: Леша должен найти друзьям невест и жениться на них, используя удостоверения ребят. И на все про все у него всего одни сутки…
Сэмпл: http://sendfile.su/1318876

Качество видео: BDRip-AVC (Пять невест 2011 Blu-ray Disc 1080i)
Формат видео: MKV
Видео: 1152x622 (1.85:1), 25 fps, ~2571 kbps avg, 0,144 bit/pixel
Аудио: 48 kHz, AC3 Dolby Digital, 3/2 (L,C,R,l,r) + LFE ch, ~448kbps

MediaInfo

General
Unique ID : 191281281301256298366385554421805625023 (0x8FE76F4B819D2EF99858B72AB0862EBF)
Format : Matroska
Format version : Version 4 / Version 2
File size : 2.18 GiB
Duration : 1h 43mn
Overall bit rate : 3 019 Kbps
Encoded date : UTC 2017-03-17 11:47:31
Writing application : mkvmerge v9.9.0 ('Pick Up') 64bit
Writing library : libebml v1.3.4 + libmatroska v1.4.5
Video #1
ID : 1
Format : AVC
Format/Info : Advanced Video Codec
Format profile : High@L4.1
Format settings, CABAC : Yes
Format settings, ReFrames : 11 frames
Codec ID : V_MPEG4/ISO/AVC
Duration : 1h 43mn
Bit rate : 2 571 Kbps
Width : 1 152 pixels
Height : 622 pixels
Display aspect ratio : 1.85:1
Frame rate mode : Constant
Frame rate : 25.000 fps
Color space : YUV
Chroma subsampling : 4:2:0
Bit depth : 8 bits
Scan type : Progressive
Bits/(Pixel*Frame) : 0.144
Stream size : 1.85 GiB (85%)
Writing library : x264 core 148 r2638 7599210
Encoding settings : cabac=1 / ref=11 / deblock=1:-3:-2 / analyse=0x3:0x133 / me=umh / subme=10 / psy=1 / psy_rd=1.00:0.00 / mixed_ref=1 / me_range=32 / chroma_me=1 / trellis=2 / 8x8dct=1 / cqm=0 / deadzone=21,11 / fast_pskip=0 / chroma_qp_offset=-2 / threads=6 / lookahead_threads=1 / sliced_threads=0 / nr=0 / decimate=1 / interlaced=0 / bluray_compat=0 / constrained_intra=0 / bframes=10 / b_pyramid=2 / b_adapt=2 / b_bias=0 / direct=1 / weightb=1 / open_gop=0 / weightp=2 / keyint=250 / keyint_min=25 / scenecut=40 / intra_refresh=0 / rc=2pass / mbtree=0 / bitrate=2571 / ratetol=1.0 / qcomp=0.65 / qpmin=0 / qpmax=69 / qpstep=4 / cplxblur=20.0 / qblur=0.5 / ip_ratio=1.40 / pb_ratio=1.30 / aq=3:0.90
Language : Russian
Default : Yes
Forced : No
Audio #2
ID : 2
Format : AC-3
Format/Info : Audio Coding 3
Mode extension : CM (complete main)
Format settings, Endianness : Big
Codec ID : A_AC3
Duration : 1h 43mn
Bit rate mode : Constant
Bit rate : 448 Kbps
Channel(s) : 6 channels
Channel positions : Front: L C R, Side: L R, LFE
Sampling rate : 48.0 KHz
Frame rate : 31.250 fps (1536 spf)
Compression mode : Lossy
Stream size : 331 MiB (15%)
Language : Russian
Default : Yes
Forced : No

лог

raw [info]: 1152x622p 1:1 @ 25/1 fps (cfr)
x264 [info]: using SAR=1/1
x264 [info]: using cpu capabilities: MMX2 SSE2Fast SSSE3 SSE4.2 AVX XOP FMA4 FMA3 LZCNT BMI1
x264 [info]: profile High, level 4.1
x264 [info]: frame I:1172 Avg QP:16.99 size:103574
x264 [info]: frame P:37345 Avg QP:19.87 size: 26191
x264 [info]: frame B:116480 Avg QP:22.47 size: 7654
x264 [info]: consecutive B-frames: 2.2% 3.7% 12.5% 33.0% 15.3% 25.9% 4.1% 1.4% 1.1% 0.2% 0.4%
x264 [info]: mb I I16..4: 5.0% 74.4% 20.6%
x264 [info]: mb P I16..4: 2.3% 7.8% 1.2% P16..4: 42.1% 18.6% 16.3% 0.8% 0.3% skip:10.7%
x264 [info]: mb B I16..4: 0.1% 0.7% 0.1% B16..8: 33.0% 9.3% 2.6% direct: 4.5% skip:49.6% L0:41.3% L1:43.0% BI:15.7%
x264 [info]: 8x8 transform intra:70.9% inter:62.8%
x264 [info]: coded y,uvDC,uvAC intra: 70.9% 69.4% 46.1% inter: 18.7% 12.9% 1.8%
x264 [info]: i16 v,h,dc,p: 72% 7% 3% 17%
x264 [info]: i8 v,h,dc,ddl,ddr,vr,hd,vl,hu: 15% 10% 10% 7% 11% 12% 11% 11% 12%
x264 [info]: i4 v,h,dc,ddl,ddr,vr,hd,vl,hu: 13% 8% 4% 9% 15% 15% 13% 11% 12%
x264 [info]: i8c dc,h,v,p: 44% 20% 21% 15%
x264 [info]: Weighted P-Frames: Y:5.8% UV:3.3%
x264 [info]: ref P L0: 45.0% 13.3% 16.0% 5.7% 5.0% 3.8% 3.5% 2.0% 1.9% 1.7% 1.8% 0.4% 0.0%
x264 [info]: ref B L0: 70.0% 11.5% 5.9% 3.2% 2.8% 2.2% 2.0% 1.3% 0.8% 0.4%
x264 [info]: ref B L1: 92.7% 7.3%
x264 [info]: kb/s:2569.08
x264 [total]: encoded 154997 frames, 7.53 fps, 2569.08 kb/s

Скриншоты


[cybertorrent.ru].t237.torrent 
Торрент: Зарегистрирован [ 2018-02-15 15:34 ] · 9FA0FAE7CFE30DF02149FB90B123341DC02E9B90

Скачать .torrent

Скачать

11 KB

Статус: проверено
Скачан: 0 раз
Размер: 2,18 GB
Профиль [ЛС]
Показать сообщения:    

Текущее время: 23-Май 07:19

Часовой пояс: UTC ± 0



Вы не можете начинать темы
Вы не можете отвечать на сообщения
Вы не можете редактировать свои сообщения
Вы не можете удалять свои сообщения
Вы не можете голосовать в опросах
Вы не можете прикреплять файлы к сообщениям
Вы можете скачивать файлы