Статистика раздачи
Размер:  22,29 GB   |    Зарегистрирован:  7 месяцев 4 дня   |    Скачан:  0 раз

Полного источника не было: Никогда

 
   
 
 

Симка ®

Пол:
Не указан
Стаж:
7 месяцев 5 дней
Сообщений:
73

Добро пожаловать в Эн.Эйч.КэйNHK ni Youkoso!
Welcome to the N.H.K.
NHKにようこそ!
Год выпуска: 2006
Жанр: комедия, драма, повседневность
Тип: TV
Продолжительность: 24 эп. по ~24 мин.
Режиссер: Ямамото Юсукэ
Автор оригинала: Такимото Тацухико
Студия: -Информационные ссылки: AniDB || MyAnimeList || World Art-Описание: Сато Тацухиро – хикикомори. Это означает, что он не работает, не учится, испытает трудности с общением и почти не выходит из дому – у Сато модный в Японии «синдром затворничества». В свои 22 года он уже вполне оформившийся неудачник: верит в мировой заговор и переживает острые панические атаки в людных местах. Однако, как знать, вдруг это всё-таки обратимо?..
Однажды к Сато стучатся миссионеры, разносящие душеполезные брошюрки, и юная девушка по имени Мисаки говорит нашему затворнику, что знает, как ему помочь. И, если только Сато подпишет контракт и обязуется ему точно следовать (при нарушении условий штраф в 1 миллион иен!), он вскоре перестанет быть хикикомори и заживет припеваючи...© Анастасия Розанова, World Art-Перевод:
  • русские субитры от:
    [box]Pascal - перевод 1-3 серий, основное оформление
    Haruko Yuri - частичный перевод 1-3 серий и редактура 1-5 серий
    Eds76, StreLOCK - перевод 4 и 5 серий
    zbone - перевод 18, 19 и частично 20 серии
    Октябрь - перевод 22 серии
    Spiritovod - перевод всего остального, включая OP и оба ED, а также всё добавочное оформление и караоке
    Отдельное спасибо mefi за черновой перевод второго ED, и Phil за отлов "очепяток".
    [/box]-Озвучка:
  • одноголосая (муж.) от J-Dee [SHIZA Project]
  • трёхголосая/многоголосая от Freya & ITLM & Люпин [Animedia & Anilibria]
    1 ED композиция на русском языке - авторства Александра Чернова
    В 6-7 сериях озвучка эпизодических ролей - Railgun
    В 11-14 сериях озвучка эпизодических ролей - Nazel
    -Качество: DVDRip
    Тип видео: без хардсаба
    Авторы рипа:
    Urotsuki & roman-x748
    Формат: MKV
    Наличие линковки: нет
    Видео:
    AVC (x264), 1280x720, 10 бит, 4315 кбит/сек, 23.976 кадр/сек (23 и 24 серии ~24.240 кадра/сек - vfr)
    Аудио: FLAC, 725 Кбит/сек, 48.0 КГц, 2 канала - Язык Японский
    Аудио 2: MP3, 320 Кбит/сек, 48,0 КГц, 2 канала - Язык Русский (внешними файлами) | [SHIZA Project]
    Аудио 3: AAC, ~190 Кбит/сек, 48.0 КГц (в сериях 01, 11, 13 - 44,1 КГц, в сериях 15, 16, 17 - 96 КГц), 2 канала - Язык Русский (внешними файлами) | [Animedia & Anilibria]-

    Список эпизодов

    01. Добро пожаловать в Проект!
    02. Добро пожаловать в Создатели!
    03. Добро пожаловать к Красавицам!
    04. Добро пожаловать в Новый мир!
    05. Добро пожаловать на Лекцию!
    06. Добро пожаловать в Класс!
    07. Добро пожаловать в Мораторий!
    08. Добро пожаловать в Чайнатаун!
    09. Добро пожаловать в Летние Дни!
    10. Добро пожаловать на Темную Сторону!
    11. Добро пожаловать в Заговор!
    12. Добро пожаловать в Оффлайн!
    13. Добро пожаловать в Рай!
    14. Добро пожаловать в Реальность!
    15. Добро пожаловать в Фантазию!
    16. Добро пожаловать в Конец Игры!
    17. Добро пожаловать в Удачу!
    18. Добро пожаловать в Безысходность!
    19. Добро пожаловать к Синей Птице!
    20. Добро пожаловать в Зимние Дни!
    21. Добро пожаловать в Возврат!
    22. Добро пожаловать к Богу!
    23. Добро пожаловать, Мисаки!
    24. Добро пожаловать в N.H.K.!-01. Welcome to the Project!
    02. Welcome to the Creator!
    03. Welcome to the Beautiful Girls!
    04. Welcome to the New World!
    05. Welcome to Counseling!
    06. Welcome to the Classroom!
    07. Welcome to the Moratorium!
    08. Welcome to China Town!
    09. Welcome to a Summer Day!
    10. Welcome to the Dark Side!
    11. Welcome to the Conspiracy!
    12. Welcome to the "Off" Meeting!
    13. Welcome to Paradise!
    14. Welcome to Reality!
    15. Welcome to the Fantasy!
    16. Welcome to the Game Over!
    17. Welcome to Happiness!
    18. Welcome to No Future!
    19. Welcome to the Blue Bird!
    20. Welcome to Winter Days!
    21. Welcome to Reset!
    22. Welcome to the God!
    23. Welcome to Misaki!
    24. Welcome to the N.H.K.!

    Отличия от других раздач

    http://cybertorrent.ru/viewtopic.php?t=5064036 - эта раздача поглощает ту
    http://cybertorrent.ru/viewtopic.php?t=3866006, http://cybertorrent.ru/viewtopic.php?t=785328 и http://cybertorrent.ru/viewtopic.php?t=3296851 (одинаковое видео - DVDRip от WLGO&JF) - лучшее качество видео:
    там -
    здесь -

    Скриншоты


    Подробные тех.данные

    Общее
    Уникальный идентификатор : 253201805307464087959368049141988483901 (0xBE7CE4D56A40991DA68C1300A018633D)
    Полное имя : ..\Welcome to the NHK [DVDRip 1280x720 x264 FLAC]\Welcome to the NHK - 01 [DVDRip 1280x720 x264 FLAC].mkv
    Формат : Matroska
    Версия формата : Version 4 / Version 2
    Размер файла : 854 Мбайт
    Продолжительность : 23 м. 41 с.
    Режим общего битрейта : Переменный
    Общий поток : 5042 Кбит/сек
    Дата кодирования : UTC 2017-05-23 12:55:55
    Программа кодирования : mkvmerge v12.0.0 ('Trust / Lust') 64bit
    Библиотека кодирования : libebml v1.3.4 + libmatroska v1.4.5
    Видео
    Идентификатор : 1
    Формат : AVC
    Формат/Информация : Advanced Video Codec
    Профиль формата : High 10@L4
    Параметр CABAC формата : Да
    Параметр ReFrames формата : 9 кадров
    Идентификатор кодека : V_MPEG4/ISO/AVC
    Продолжительность : 23 м. 41 с.
    Битрейт : 4315 Кбит/сек
    Ширина : 1280 пикселей
    Высота : 720 пикселей
    Соотношение сторон : 16:9
    Режим частоты кадров : Постоянный
    Частота кадров : 23,976 (24000/1001) кадра/сек
    Цветовое пространство : YUV
    Субдискретизация насыщенности : 4:2:0
    Битовая глубина : 10 бит
    Тип развёртки : Прогрессивная
    Бит/(Пиксели*Кадры) : 0.195
    Размер потока : 731 Мбайт (86%)
    Библиотека кодирования : x264 core 148 r2744kMod b97ae06
    Настройки программы : cabac=1 / ref=9 / deblock=1:-2:-2 / analyse=0x3:0x133 / me=umh / subme=10 / psy=1 / fade_compensate=0.00 / psy_rd=1.00:0.00 / mixed_ref=1 / me_range=24 / chroma_me=1 / trellis=2 / 8x8dct=1 / cqm=0 / deadzone=21,11 / fast_pskip=0 / chroma_qp_offset=-2 / threads=12 / lookahead_threads=2 / sliced_threads=0 / nr=0 / decimate=0 / interlaced=0 / bluray_compat=0 / constrained_intra=0 / bframes=8 / b_pyramid=2 / b_adapt=2 / b_bias=0 / direct=1 / weightb=1 / open_gop=0 / weightp=2 / keyint=250 / keyint_min=23 / scenecut=40 / intra_refresh=0 / rc=crf / mbtree=0 / crf=17.0000 / qcomp=0.60 / qpmin=0 / qpmax=81 / qpstep=4 / ip_ratio=1.40 / pb_ratio=1.30 / aq=1:1.00
    Язык : Japanese
    Default : Да
    Forced : Нет
    Цветовой диапазон : Limited
    Основные цвета : BT.709
    Характеристики трансфера : BT.709
    Коэффициенты матрицы : BT.709
    Аудио
    Идентификатор : 2
    Формат : FLAC
    Формат/Информация : Free Lossless Audio Codec
    Идентификатор кодека : A_FLAC
    Продолжительность : 23 м. 40 с.
    Вид битрейта : Переменный
    Битрейт : 725 Кбит/сек
    Каналы : 2 канала
    Расположение каналов : Front: L R
    Частота : 48,0 КГц
    Частота кадров : 11,719 кадров/сек (4096 spf)
    Битовая глубина : 16 бит
    Размер потока : 123 Мбайт (14%)
    Библиотека кодирования : libFLAC 1.3.1 (UTC 2014-11-25)
    Язык : Japanese
    Default : Да
    Forced : Нет
    -

    Инструкция по просмотру

    В: Чем смотреть?
    О: Как смотреть 10-битное видео (10-bit)-В: Как посмотреть с озвучкой?
    О: Скопировать файлы из папки "Rus Sound" (нужный вам вариант) в одну папку с видео, и переключить звуковую дорожку в плеере при просмотре. Либо открыть внешнюю аудиодорожку при просмотре видео (если такая функция есть в плеере). Как это сделать в разных плеерах можно узнать здесь.-В: Как посмотреть с субтитрами?
    О: Если плеер не подключил субтитры автоматически, то нужно скопировать файлы из папки "Rus Subs" в одну папку с видео. Либо открыть внешние субтитры при просмотре видео (если такая функция есть в плеере).
    -OST в формате FLAC (lossless): (OST) NHK ni Youkoso! | Welcome to the NHK | Добро пожаловать в Эн.Эйч.Кэй (6 Albums) - 2006, FLAC (tracks), lossless
    [cybertorrent.ru].t2376.torrent 
    Торрент: Зарегистрирован [ 2018-02-16 11:35 ] · BA51DB688C4E4DD47F4A9D71C7142D61AB2CAE3C

    Скачать .torrent

    Скачать

    124 KB

    Статус: проверено
    Скачан: 0 раз
    Размер: 22,29 GB
  • Профиль [ЛС]
    Показать сообщения:    

    Текущее время: 21-Сен 10:11

    Часовой пояс: UTC ± 0



    Вы не можете начинать темы
    Вы не можете отвечать на сообщения
    Вы не можете редактировать свои сообщения
    Вы не можете удалять свои сообщения
    Вы не можете голосовать в опросах
    Вы не можете прикреплять файлы к сообщениям
    Вы можете скачивать файлы
    Torrents24.ru открытый BitTorrent Torrents24.pl открытый BitTorrent CyberTorrent.ru открытый BitTorrent BtList.ru рейтинг BitTorrent трекеров Яндекс.Метрика