Статистика раздачи
Размер:  1,46 GB   |    Зарегистрирован:  5 месяцев 4 дня   |    Скачан:  0 раз

Полного источника не было: Никогда

 
   
 
 

lom ®

Пол:
Не указан
Стаж:
5 месяцев 5 дней
Сообщений:
156

Наруто: Последний фильм
The Last: Naruto the Movie

-Год выпуска: 2014
Страна: Япония
Жанр: приключения, комедия, боевые искусства, сёнэн.
-Режиссёр: Цунэо Кобаяси.
Студия: Studio Pierrot (подробнее...)
-Перевод: полное дублирование от Reanimedia [Сэмпл]-Описание: Спустя годы после событий Четвертой Мировой Войны Луна, в которую давным-давно Рикудо Сэннин запечатал Гэдо Мазо, начинает приближаться к Земле, угрожая превратиться в метеор и уничтожить все живое. В это нелегкое время таинственный человек, обладающий бьякуганом, похищает сестру Хинаты, Ханаби. И теперь уже взрослые Наруто и его друзья отправляются, чтобы спасти Ханаби и принять участие в финальной битве, которая решит судьбу всего мира!
-
Качество: WEBRip | Формат: AVI | Тип видео: без хардсаба | Продолжительность: [Movie], 1:51:54.
Видео: Xvid; 8bit; 720x384; 1475Kbps, 24fps;
Аудио: RUS, AС3; 44100Hz; 384Kbps (6ch);

Media Info

Общее
Полное имя : C:\Users\Home PC\Videos\Раздачи\The Last Naruto The Movie.WEB-DLRip.avi
Формат : AVI
Формат/Информация : Audio Video Interleave
Размер файла : 1,46 Гбайт
Продолжительность : 1 ч. 51 м.
Общий поток : 1868 Кбит/сек
Программа кодирования : VirtualDubMod 1.5.10.3 | www.virtualdub-fr.org || (build 2550/release)
Библиотека кодирования : VirtualDubMod build 2550/release
Видео
Идентификатор : 0
Формат : MPEG-4 Visual
Профиль формата : Advanced Simple@L5
Параметр BVOP формата : 2
Параметр QPel формата : Нет
Параметр GMC формата : Без точки перехода
Параметр матрицы формата : Default (MPEG)
Идентификатор кодека : XVID
Идентификатор кодека/Подсказка : XviD
Продолжительность : 1 ч. 51 м.
Битрейт : 1475 Кбит/сек
Ширина : 720 пикселей
Высота : 384 пикселя
Соотношение сторон : 1,85:1
Частота кадров : 24,000 кадра/сек
Цветовое пространство : YUV
Субдискретизация насыщенности : 4:2:0
Битовая глубина : 8 бит
Тип развёртки : Прогрессивная
Метод сжатия : С потерями
Бит/(Пиксели*Кадры) : 0.222
Размер потока : 1,15 Гбайт (79%)
Библиотека кодирования : XviD 1.2.1 (UTC 2008-12-04)
Аудио
Идентификатор : 1
Формат : AC-3
Формат/Информация : Audio Coding 3
Расширение режима : CM (complete main)
Параметр Endianness формата : Big
Идентификатор кодека : 2000
Продолжительность : 1 ч. 51 м.
Вид битрейта : Постоянный
Битрейт : 384 Кбит/сек
Каналы : 6 каналов
Расположение каналов : Front: L C R, Side: L R, LFE
Частота : 48,0 КГц
Битовая глубина : 16 бит
Метод сжатия : С потерями
Размер потока : 307 Мбайт (21%)
Выравнивание : Разделение по промежуткам
Продолжительность промежутка : 42 мс. (1,00 видеокадр)
Время предзагрузки промежутка : 500 мс.
-

Скриншоты (превью)

-
[cybertorrent.ru].t2379.torrent 
Торрент: Зарегистрирован [ 2018-02-16 11:35 ] · B45ED088086C716B57D57033381759AFF472DA0D

Скачать .torrent

Скачать

15 KB

Статус: проверено
Скачан: 0 раз
Размер: 1,46 GB
Профиль [ЛС]
Показать сообщения:    

Текущее время: 21-Июл 04:17

Часовой пояс: UTC ± 0



Вы не можете начинать темы
Вы не можете отвечать на сообщения
Вы не можете редактировать свои сообщения
Вы не можете удалять свои сообщения
Вы не можете голосовать в опросах
Вы не можете прикреплять файлы к сообщениям
Вы можете скачивать файлы