Статистика раздачи
Размер:  1,48 GB   |    Зарегистрирован:  3 месяца 8 дней   |    Скачан:  0 раз

Полного источника не было: Никогда

 
   
 
 

lopster ®

Пол:
Не указан
Стаж:
3 месяца 8 дней
Сообщений:
612

Гуляй, Вася!- Жанр: комедия
Год выпуска: 2017
Продолжительность: 01:36:03
Режиссер: Роман Каримов
В ролях: Ефим Петрунин (Митя), Любовь Аксенова (Василиса), Роман Курцын (Макс), Софья Райзман (Настя), Борис Дергачев (Паша), Сергей Аброскин (Гарик), Светлана Степанковская (Алиса), Вера Панфилова (Кира), Наталья Тетенова (Жанна), Давид Петросян (Тигран), Станислав Тляшев (Ренат), Ольга Лебедева (мама Мити)
Описание: Бедный Митя влип по полной: случайно сделал предложение, а отец девушки, как будто только этого и ждал - тут же назначил дату свадьбы. Все бы ничего, да только Митя... уже женат! Он возвращается в свой город, чтобы экстренно развестись. Но Василиса (или просто Вася), с которой они давно не живут, - циничная стерва, и за развод придется побороться. Простейший способ ускорить процесс - предъявить первую попавшуюся «невесту». Кто же знал, что у нее имеется настоящий жених, местный качок... Окончательно все запутывается, когда разруливать ситуацию берутся бывшие одноклассники Мити - подкаблучник Паша и аферист Гарик.- -Качество: BDRip-AVC (исходник - Blu-ray|GULYAI_VASYA_HDCLUB)
Формат видео: MKV
Видео: x264, 832x468 (16:9) 24 fps, ~1709 kbps, 0.183 bit/pixel
Аудио: 48 kHz, AC3 Dolby Digital, 5.1 (Front: L C R, Side: L R, LFE) ch, ~448 kbps-

MediaInfo | x264 log

Format : Matroska
Format version : Version 4 / Version 2
File size : 1.48 GiB
Duration : 1h 36 min
Overall bit rate : 2 201 kb/s
Movie name : Гуляй, Вася! (2017) :: AFM ::
Encoded date : UTC 2017-05-14 13:23:10
Writing application : mkvmerge v8.3.0 ('Over the Horizon') 32bit
Writing library : libebml v1.3.1 + libmatroska v1.4.2
Video
ID : 1
Format : AVC
Format/Info : Advanced Video Codec
Format profile : High@L4.1
Format settings, CABAC : Yes
Format settings, ReFrames : 11 frames
Codec ID : V_MPEG4/ISO/AVC
Duration : 1h 36 min
Bit rate : 1 709 kb/s
Width : 832 pixels
Height : 468 pixels
Display aspect ratio : 16:9
Frame rate mode : Constant
Frame rate : 24.000 FPS
Color space : YUV
Chroma subsampling : 4:2:0
Bit depth : 8 bits
Scan type : Progressive
Bits/(Pixel*Frame) : 0.183
Stream size : 1.15 GiB (78%)
Title : BDRip by AFM
Writing library : x264 core 150 r2818+45 3daaad6 7mod [8-bit@all X86_64]
Encoding settings : cabac=1 / ref=11 / deblock=1:-2:-1 / analyse=0x3:0x113 / me=umh / subme=10 / psy=1 / fade_compensate=0.00 / psy_rd=1.00:0.00 / mixed_ref=1 / me_range=32 / chroma_me=0 / trellis=2 / 8x8dct=1 / cqm=0 / deadzone=21,11 / fast_pskip=0 / chroma_qp_offset=-2 / threads=6 / lookahead_threads=1 / sliced_threads=0 / nr=0 / decimate=1 / interlaced=0 / bluray_compat=0 / constrained_intra=0 / fgo=0 / bframes=12 / b_pyramid=2 / b_adapt=2 / b_bias=0 / direct=1 / weightb=1 / open_gop=0 / weightp=2 / keyint=240 / keyint_min=23 / scenecut=40 / intra_refresh=0 / rc_lookahead=60 / rc=crf / mbtree=0 / crf=18.1500 / qcomp=0.65 / qpmin=0:0:0 / qpmax=69:69:69 / qpstep=4 / vbv_maxrate=50000 / vbv_bufsize=62500 / crf_max=0.0 / nal_hrd=none / filler=0 / ip_ratio=1.35 / pb_ratio=1.20 / aq=4:0.85 / aq-sensitivity=10.00 / aq-factor=1.00:1.00:1.00 / aq2=0 / aq3=0 / zones=131027,138303,q=27
Language : Russian
Default : Yes
Forced : No
Audio
ID : 2
Format : AC-3
Format/Info : Audio Coding 3
Mode extension : CM (complete main)
Format settings, Endianness : Big
Codec ID : A_AC3
Duration : 1h 36 min
Bit rate mode : Constant
Bit rate : 448 kb/s
Channel(s) : 6 channels
Channel positions : Front: L C R, Side: L R, LFE
Sampling rate : 48.0 kHz
Frame rate : 31.250 FPS (1536 spf)
Compression mode : Lossy
Stream size : 308 MiB (20%)
Title : AC3 5.1 ~448 kbps
Language : Russian
Default : Yes
Forced : No
Menu
00:00:00.000 : ru:Chapter 1
00:00:38.500 : ru:Chapter 2
00:10:37.208 : ru:Chapter 3
00:21:31.958 : ru:Chapter 4
00:33:54.250 : ru:Chapter 5
00:44:16.250 : ru:Chapter 6
00:58:07.541 : ru:Chapter 7
01:09:39.916 : ru:Chapter 8
01:21:14.416 : ru:Chapter 9

x264

x264 [info]: frame I:1351 Avg QP:17.73 size: 51948
x264 [info]: frame P:31851 Avg QP:19.73 size: 17836
x264 [info]: frame B:105101 Avg QP:21.98 size: 5931
x264 [info]: consecutive B-frames: 1.9% 2.3% 8.9% 36.8% 21.2% 21.7% 3.7% 1.1% 0.9% 0.3% 0.3% 0.1% 0.7%
x264 [info]: mb I I16..4: 4.6% 71.9% 23.5%
x264 [info]: mb P I16..4: 1.5% 11.4% 3.1% P16..4: 39.2% 24.3% 12.7% 0.0% 0.0% skip: 7.9%
x264 [info]: mb B I16..4: 0.1% 1.0% 0.4% B16..8: 37.2% 10.5% 2.9% direct: 6.7% skip:41.1% L0:39.1% L1:42.1% BI:18.8%
x264 [info]: 8x8 transform intra:70.2% inter:65.6%
x264 [info]: coded y,uvDC,uvAC intra: 79.4% 88.0% 67.3% inter: 20.5% 24.1% 8.8%
x264 [info]: i16 v,h,dc,p: 28% 14% 6% 52%
x264 [info]: i8 v,h,dc,ddl,ddr,vr,hd,vl,hu: 19% 10% 6% 7% 11% 12% 11% 12% 12%
x264 [info]: i4 v,h,dc,ddl,ddr,vr,hd,vl,hu: 29% 7% 4% 7% 12% 12% 11% 9% 9%
x264 [info]: i8c dc,h,v,p: 37% 21% 24% 18%
x264 [info]: Weighted P-Frames: Y:97.0% UV:1.7%
x264 [info]: ref P L0: 52.2% 13.7% 14.2% 5.0% 4.0% 2.9% 2.6% 1.4% 1.3% 1.2% 1.2% 0.0% 0.0%
x264 [info]: ref B L0: 80.6% 8.3% 4.2% 2.1% 1.5% 1.1% 1.0% 0.6% 0.4% 0.2%
x264 [info]: ref B L1: 95.8% 4.2%
x264 [info]: kb/s:1751.45

Скриншоты

с названием

Торрент перезалит - замена на BDRip
[cybertorrent.ru].t238.torrent 
Торрент: Зарегистрирован [ 2018-02-15 15:34 ] · 97AAE0C8E25C8FFD8093412AEA5EAE08E3BD9B98

Скачать .torrent

Скачать

15 KB

Статус: проверено
Скачан: 0 раз
Размер: 1,48 GB
Профиль [ЛС]
Показать сообщения:    

Текущее время: 23-Май 16:32

Часовой пояс: UTC ± 0



Вы не можете начинать темы
Вы не можете отвечать на сообщения
Вы не можете редактировать свои сообщения
Вы не можете удалять свои сообщения
Вы не можете голосовать в опросах
Вы не можете прикреплять файлы к сообщениям
Вы можете скачивать файлы