Статистика раздачи
Размер:  4,18 GB   |    Зарегистрирован:  5 месяцев 4 дня   |    Скачан:  0 раз

Полного источника не было: Никогда

 
   
 
 

lom ®

Пол:
Не указан
Стаж:
5 месяцев 5 дней
Сообщений:
156

Наруто: Последний фильмThe Last: Naruto the Movie
-Год выпуска: 2014
Страна: Япония
Тип: Movie
Жанр: приключения, комедия, боевые искусства, сёнэн.
Продолжительность: 01:51:54
Субтитры: нет-Режиссёр: Цунэо Кобаяси-Перевод: полное дублирование от Reanimedia-Описание: Спустя годы после событий Четвертой Мировой Войны Луна, в которую давным-давно Рикудо Сэннин запечатал Гэдо Мазо, начинает приближаться к Земле, угрожая превратиться в метеор и уничтожить все живое. В это нелегкое время таинственный человек, обладающий бьякуганом, похищает сестру Хинаты, Ханаби. И теперь уже взрослые Наруто и его друзья отправляются, чтобы спасти Ханаби и принять участие в финальной битве, которая решит судьбу всего мира!
Качество: WEBRip 1080p [iTunes] [Сэмпл]
Формат: MKV
Тип видео: без хардсаба
Видео: MPEG4 Video (H264), 1920x1040, 24fps, 8bit, 4 861 Kbps
Аудио: Dolby AC3, 48000Hz, 6ch, 384 Kbps

Скриншоты

MediaInfo

Format : Matroska
Format version : Version 4 / Version 2
File size : 4.18 GiB
Duration : 1h 51mn
Overall bit rate : 5 351 Kbps
Encoded date : UTC 2015-07-01 18:23:41
Writing application : mkvmerge v6.9.1 ('Blue Panther') 64bit built on Apr 18 2014 18:23:38
Writing library : libebml v1.3.0 + libmatroska v1.4.1
Video
ID : 1
Format : AVC
Format/Info : Advanced Video Codec
Format profile : High@L4.0
Format settings, CABAC : Yes
Format settings, ReFrames : 4 frames
Codec ID : V_MPEG4/ISO/AVC
Duration : 1h 51mn
Bit rate : 4 861 Kbps
Width : 1 920 pixels
Height : 1 040 pixels
Display aspect ratio : 1.85:1
Frame rate mode : Constant
Frame rate : 24.000 fps
Color space : YUV
Chroma subsampling : 4:2:0
Bit depth : 8 bits
Scan type : Progressive
Bits/(Pixel*Frame) : 0.101
Stream size : 3.80 GiB (91%)
Language : English
Default : Yes
Forced : No
Color primaries : BT.709
Transfer characteristics : BT.709
Matrix coefficients : BT.709
Audio
ID : 2
Format : AC-3
Format/Info : Audio Coding 3
Mode extension : CM (complete main)
Format settings, Endianness : Big
Codec ID : A_AC3
Duration : 1h 51mn
Bit rate mode : Constant
Bit rate : 384 Kbps
Channel(s) : 6 channels
Channel positions : Front: L C R, Side: L R, LFE
Sampling rate : 48.0 KHz
Bit depth : 16 bits
Compression mode : Lossy
Stream size : 307 MiB (7%)
Language : Russian
Default : Yes
Forced : No

Отличие от существующих раздач

Там 384p - http://cybertorrent.ru/viewtopic.php?t=5035197 - тут 1080p
Там 720p - http://cybertorrent.ru/viewtopic.php?t=5035434 - тут 1080p
[cybertorrent.ru].t2380.torrent 
Торрент: Зарегистрирован [ 2018-02-16 11:35 ] · 764AA84477257E06175BE7DC1661BC12C63BB07F

Скачать .torrent

Скачать

21 KB

Статус: проверено
Скачан: 0 раз
Размер: 4,18 GB
Профиль [ЛС]
Показать сообщения:    

Текущее время: 21-Июл 04:16

Часовой пояс: UTC ± 0



Вы не можете начинать темы
Вы не можете отвечать на сообщения
Вы не можете редактировать свои сообщения
Вы не можете удалять свои сообщения
Вы не можете голосовать в опросах
Вы не можете прикреплять файлы к сообщениям
Вы можете скачивать файлы