Статистика раздачи
Размер:  3,45 GB   |    Зарегистрирован:  7 месяцев 3 дня   |    Скачан:  0 раз

Полного источника не было: Никогда

 
   
 
 

lom ®

Пол:
Не указан
Стаж:
7 месяцев 4 дня
Сообщений:
192

Наруто: Последний фильмThe Last: Naruto the Movie
-Год выпуска: 2014
Страна: Япония
Тип: Movie
Жанр: приключения, комедия, боевые искусства, сёнэн.
Продолжительность: 01:51:54
Субтитры: нет-Режиссёр: Цунэо Кобаяси-Перевод: полное дублирование от Reanimedia-Описание: Спустя годы после событий Четвертой Мировой Войны Луна, в которую давным-давно Рикудо Сэннин запечатал Гэдо Мазо, начинает приближаться к Земле, угрожая превратиться в метеор и уничтожить все живое. В это нелегкое время таинственный человек, обладающий бьякуганом, похищает сестру Хинаты, Ханаби. И теперь уже взрослые Наруто и его друзья отправляются, чтобы спасти Ханаби и принять участие в финальной битве, которая решит судьбу всего мира!
Качество: WEBRip 720p [iTunes] [Сэмпл]
Формат: MKV
Тип видео: без хардсаба
Видео: MPEG4 Video (H264), 1280x692, 24fps, 8bit, 3 944 Kbps
Аудио: Dolby AC3, 48000Hz, 6ch, 384 Kbps

Скриншоты

MediaInfo

Format : Matroska
Format version : Version 4 / Version 2
File size : 3.45 GiB
Duration : 1h 51mn
Overall bit rate : 4 416 Kbps
Encoded date : UTC 2015-07-01 18:09:12
Writing application : mkvmerge v6.9.1 ('Blue Panther') 64bit built on Apr 18 2014 18:23:38
Writing library : libebml v1.3.0 + libmatroska v1.4.1
Video
ID : 1
Format : AVC
Format/Info : Advanced Video Codec
Format profile : High@L3.1
Format settings, CABAC : No
Format settings, ReFrames : 2 frames
Codec ID : V_MPEG4/ISO/AVC
Duration : 1h 51mn
Bit rate : 3 944 Kbps
Width : 1 280 pixels
Height : 692 pixels
Display aspect ratio : 1.85:1
Frame rate mode : Constant
Frame rate : 24.000 fps
Color space : YUV
Chroma subsampling : 4:2:0
Bit depth : 8 bits
Scan type : Progressive
Bits/(Pixel*Frame) : 0.186
Stream size : 3.08 GiB (89%)
Language : English
Default : Yes
Forced : No
Color primaries : BT.709
Transfer characteristics : BT.709
Matrix coefficients : BT.709
Audio
ID : 2
Format : AC-3
Format/Info : Audio Coding 3
Mode extension : CM (complete main)
Format settings, Endianness : Big
Codec ID : A_AC3
Duration : 1h 51mn
Bit rate mode : Constant
Bit rate : 384 Kbps
Channel(s) : 6 channels
Channel positions : Front: L C R, Side: L R, LFE
Sampling rate : 48.0 KHz
Bit depth : 16 bits
Compression mode : Lossy
Stream size : 307 MiB (9%)
Language : Russian
Default : Yes
Forced : No

Отличие от существующих раздач

Там 384p - http://cybertorrent.ru/viewtopic.php?t=5035197 - тут 720p
Там 1080p - http://cybertorrent.ru/viewtopic.php?t=5035433 - тут 720p
[cybertorrent.ru].t2381.torrent 
Торрент: Зарегистрирован [ 2018-02-16 11:35 ] · 3A1D31FAEE2474C85BEB1CF283E46834E0E24FBE

Скачать .torrent

Скачать

18 KB

Статус: проверено
Скачан: 0 раз
Размер: 3,45 GB
Профиль [ЛС]
Показать сообщения:    

Текущее время: 19-Сен 16:19

Часовой пояс: UTC ± 0



Вы не можете начинать темы
Вы не можете отвечать на сообщения
Вы не можете редактировать свои сообщения
Вы не можете удалять свои сообщения
Вы не можете голосовать в опросах
Вы не можете прикреплять файлы к сообщениям
Вы можете скачивать файлы
Torrents24.ru открытый BitTorrent Torrents24.pl открытый BitTorrent CyberTorrent.ru открытый BitTorrent BtList.ru рейтинг BitTorrent трекеров Яндекс.Метрика