BitTorrent клиенты



Маленький лес: Зима, весна / Небольшой лес: Зима и весна / Little Forest: Winter/Spring (Мори Дзюнити / Джуничи Мори / Jun'ichi Mori / Junichi Mori) [2015, Япония, драма, BDRip 720p] VO (GREEN TEA) + Sub (Eng) + Original (Jap)

Ответить на тему
 
Автор Сообщение

Keeper ®

Пол: Не указан

Стаж: 1 год

Сообщений: 499

Создавать темы 07-Фев-2018 20:45

[Цитировать]

Маленький лес: Зима, весна / Небольшой лес: Зима и весна / Little Forest: Winter/Spring Страна: Япония
Жанр: драма
Год выпуска: 2015
Продолжительность: 02:00:56
Перевод: Одноголосый закадровый GREEN TEA (Екатерина Юрьева) // Перевод: ФСГ 'MAGICIANS'
Субтитры: английские (SkewedS)
Оригинальная аудиодорожка: японский
Режиссер: Мори Дзюнити / Джуничи Мори / Jun'ichi Mori / Junichi Mori
В ролях: Аи Хасимото, Маю Мацуока, Ёити Нукумидзу, Карен Киришма, Такахиро Миура, Момонэ Синокава
Описание:
Ичико была вынуждена кардинально поменять свое место жительства: из большого города она переселилась в деревню Комори. Жизнь в деревне очень тяжела, Ичико приходится научиться добывать себе пропитание и готовить еду из местных продуктов. Отношения с матерью еще одна область, в которой девушка испытывает трудности. Дело в том, что мать ушла, а общаться предпочитает исключительно через письма. Сможет ли героиня в одиночку выжить в деревне?
- Релиз группы: -Тип релиза: BDRip 720p (рип от Red@VietHD)
Контейнер: MKV
Видео: AVC (x264), 1280x720 (16:9) at 23,976 fps, 4910 Кbps, 0.222 bpp
Аудио 1: AC3; 192 Kbps; CBR; 2 ch; 48 khz | VO - GREEN TEA |
Аудио 2: AC3; 640 Kbps; CBR; 6 ch; 48 khz | Японский |
Формат субтитров: softsub (SRT);

Скриншоты || x264 Info || MediaInfo || Notes

MediaInfo

Код:General
Unique ID : 229547402217425194716489685424753990395 (0xACB138B811E5FEE98797B85EF415DAFB)
Complete name : Маленький лес. Зима, весна.2015.L1.720p.BluRay.x264-VietHD.mkv
Format : Matroska
Format version : Version 4 / Version 2
File size : 4.95 GiB
Duration : 2h 0mn
Overall bit rate : 5 858 Kbps
Movie name : Little Forest: Winter/Spring [2015] [720p] VO
Encoded date : UTC 2016-10-20 11:18:01
Writing application : mkvmerge v7.8.0 ('River Man') 32bit built on Mar 27 2015 16:18:02
Writing library : libebml v1.3.1 + libmatroska v1.4.2
Video
ID : 1
Format : AVC
Format/Info : Advanced Video Codec
Format profile : High@L4.1
Format settings, CABAC : Yes
Format settings, ReFrames : 9 frames
Codec ID : V_MPEG4/ISO/AVC
Duration : 2h 0mn
Bit rate : 4 910 Kbps
Width : 1 280 pixels
Height : 720 pixels
Display aspect ratio : 16:9
Frame rate mode : Constant
Frame rate : 23.976 fps
Color space : YUV
Chroma subsampling : 4:2:0
Bit depth : 8 bits
Scan type : Progressive
Bits/(Pixel*Frame) : 0.222
Stream size : 4.15 GiB (84%)
Title : profile.php?mode=viewprofile&u=22488948 || RG Orient Extreme Films
Writing library : x264 core 148 r2665kMod a01e339
Encoding settings : cabac=1 / ref=9 / deblock=1:-3:-3 / analyse=0x3:0x133 / me=umh / subme=10 / psy=1 / fade_compensate=0.00 / psy_rd=1.05:0.00 / mixed_ref=1 / me_range=24 / chroma_me=1 / trellis=2 / 8x8dct=1 / cqm=0 / deadzone=21,11 / fast_pskip=0 / chroma_qp_offset=-2 / threads=12 / lookahead_threads=3 / sliced_threads=0 / nr=0 / decimate=0 / interlaced=0 / bluray_compat=0 / constrained_intra=0 / fgo=0 / bframes=11 / b_pyramid=2 / b_adapt=2 / b_bias=0 / direct=3 / weightb=1 / open_gop=0 / weightp=2 / keyint=250 / keyint_min=23 / scenecut=40 / intra_refresh=0 / rc_lookahead=60 / rc=crf / mbtree=0 / crf=16.0000 / qcomp=0.62 / qpmin=0 / qpmax=69 / qpstep=4 / vbv_maxrate=62500 / vbv_bufsize=78125 / crf_max=0.0 / nal_hrd=none / filler=0 / ip_ratio=1.30 / pb_ratio=1.20 / aq=3:0.75
Language : Japanese
Default : Yes
Forced : No
Matrix coefficients : BT.709
Color range : Limited
Audio #1
ID : 2
Format : AC-3
Format/Info : Audio Coding 3
Mode extension : CM (complete main)
Format settings, Endianness : Big
Codec ID : A_AC3
Duration : 2h 0mn
Bit rate mode : Constant
Bit rate : 192 Kbps
Channel(s) : 2 channels
Channel positions : Front: L R
Sampling rate : 48.0 KHz
Bit depth : 16 bits
Compression mode : Lossy
Stream size : 166 MiB (3%)
Title : VO [GREEN TEA]
Language : Russian
Default : Yes
Forced : No
Audio #2
ID : 3
Format : AC-3
Format/Info : Audio Coding 3
Mode extension : CM (complete main)
Format settings, Endianness : Big
Codec ID : A_AC3
Duration : 2h 0mn
Bit rate mode : Constant
Bit rate : 640 Kbps
Channel(s) : 6 channels
Channel positions : Front: L C R, Side: L R, LFE
Sampling rate : 48.0 KHz
Bit depth : 16 bits
Compression mode : Lossy
Stream size : 554 MiB (11%)
Language : Japanese
Default : No
Forced : No
Text
ID : 4
Format : UTF-8
Codec ID : S_TEXT/UTF8
Codec ID/Info : UTF-8 Plain Text
Title : fansub (SkewedS)
Language : English
Default : No
Forced : No
Menu
00:00:00.000 : en:00:00:00.000
00:00:14.014 : en:00:00:14.014
00:04:04.995 : en:00:04:04.995
00:11:58.509 : en:00:11:58.509
00:19:08.898 : en:00:19:08.898
00:25:19.560 : en:00:25:19.560
00:32:31.241 : en:00:32:31.241
00:39:15.061 : en:00:39:15.061
00:49:59.038 : en:00:49:59.038
00:58:50.152 : en:00:58:50.152
01:02:47.764 : en:01:02:47.764
01:06:19.976 : en:01:06:19.976
01:08:54.714 : en:01:08:54.714
01:15:04.375 : en:01:15:04.375
01:19:32.559 : en:01:19:32.559
01:25:09.980 : en:01:25:09.980
01:33:07.081 : en:01:33:07.081
01:43:03.928 : en:01:43:03.928
01:48:47.354 : en:01:48:47.354

x264 Info

[box=#F5F5F5,#F5F5F5]x264 [info]: frame I:1183 Avg QP:13.94 size:170839[/box]x264 [info]: frame P:34862 Avg QP:15.71 size: 52236x264 [info]: frame B:137931 Avg QP:16.29 size: 18370x264 [info]: consecutive B-frames: 1.7% 1.5% 8.6% 15.6% 13.0% 38.7% 6.8% 4.2% 2.3% 1.2% 2.4% 3.8%
[Профиль] [ЛС]
Показать сообщения:    
Ответить на тему

Текущее время: 23-Фев 16:18

Часовой пояс: UTC + 3



Вы не можете начинать темы
Вы не можете отвечать на сообщения
Вы не можете редактировать свои сообщения
Вы не можете удалять свои сообщения
Вы не можете голосовать в опросах
Вы не можете прикреплять файлы к сообщениям
Вы можете скачивать файлы