Статистика раздачи
Размер:  1,46 GB   |    Зарегистрирован:  3 месяца 6 дней   |    Скачан:  0 раз

Полного источника не было: Никогда

 
   
 
 

lopster ®

Пол:
Не указан
Стаж:
3 месяца 6 дней
Сообщений:
612

Гуляй, Вася!- Год выпуска: 2016
Выпущено: Россия / Yellow, Black & White
Жанр: комедия
Продолжительность: 01:36:02-Режиссёр:
Роман Каримов-В ролях:
Ефим Петрунин, Любовь Аксенова, Роман Курцын, Софья Райзман, Борис Дергачев, Сергей Аброскин, Светлана Степанковская, Вера Панфилова, Наталья Тетенова, Давид Петросян-Описание:
Бедный Митя влип по полной: случайно сделал предложение, а отец девушки, как будто только этого и ждал — тут же назначил дату свадьбы. Все бы ничего, да только Митя… уже женат! Он возвращается в свой город, чтобы экстренно развестись. Но Василиса (или просто Вася), с которой они давно не живут, — циничная стерва, и за развод придется побороться. Простейший способ ускорить процесс — предъявить первую попавшуюся «невесту». Кто же знал, что у нее имеется настоящий жених, местный качок… Окончательно все запутывается, когда разруливать ситуацию берутся бывшие одноклассники Мити — подкаблучник Паша и аферист Гарик.-Релиз групп | | КиноПоиск | Сэмпл |-Качество: BDRip [GULYAI_VASYA_HDCLUB]
Формат: AVI
Видео: 704x400 (1.76:1), 24.000 fps, XviD build 67 ~1713 kbps avg, 0.25 bit/pixel
Аудио: 48 kHz, AC3 Dolby Digital, 3/2 (L,C,R,l,r) + LFE ch, ~448 kbps avg-

Скриншоты

-

MediaInfo

Код:Общее
Полное имя : D:\Gulyai_Vasya_2016_BDRip_by_Dalemake.avi
Формат : AVI
Формат/Информация : Audio Video Interleave
Размер файла : 1,46 Гбайт
Продолжительность : 1 ч. 36 м.
Общий поток : 2171 Кбит/сек
Программа кодирования : VirtualDubMod 1.5.10.3 | www.virtualdub-fr.org || (build 2550/release)
Библиотека кодирования : VirtualDubMod build 2550/release
Видео
Идентификатор : 0
Формат : MPEG-4 Visual
Профиль формата : Advanced Simple@L5
Параметр BVOP формата : 1
Параметр QPel формата : Нет
Параметр GMC формата : Без точки перехода
Параметр матрицы формата : Выборочная
Идентификатор кодека : XVID
Идентификатор кодека/Подсказка : XviD
Продолжительность : 1 ч. 36 м.
Битрейт : 1714 Кбит/сек
Ширина : 704 пикселя
Высота : 400 пикселей
Соотношение сторон : 16:9
Частота кадров : 24,000 кадра/сек
Цветовое пространство : YUV
Субдискретизация насыщенности : 4:2:0
Битовая глубина : 8 бит
Тип развёртки : Прогрессивная
Метод сжатия : С потерями
Бит/(Пиксели*Кадры) : 0.254
Размер потока : 1,15 Гбайт (79%)
Библиотека кодирования : XviD 67
Аудио
Идентификатор : 1
Формат : AC-3
Формат/Информация : Audio Coding 3
Расширение режима : CM (complete main)
Параметр Endianness формата : Big
Идентификатор кодека : 2000
Продолжительность : 1 ч. 36 м.
Вид битрейта : Постоянный
Битрейт : 448 Кбит/сек
Каналы : 6 каналов
Расположение каналов : Front: L C R, Side: L R, LFE
Частота : 48,0 КГц
Битовая глубина : 16 бит
Метод сжатия : С потерями
Размер потока : 308 Мбайт (21%)
Выравнивание : Разделение по промежуткам
Продолжительность промежутка : 42 мс. (1,00 видеокадр)
Время предзагрузки промежутка : 500 мс.
-
[cybertorrent.ru].t239.torrent 
Торрент: Зарегистрирован [ 2018-02-15 15:34 ] · 1EE7EF4F33B9B8ECC40AAB3C245B524A73DDAD1C

Скачать .torrent

Скачать

15 KB

Статус: проверено
Скачан: 0 раз
Размер: 1,46 GB
Профиль [ЛС]
Показать сообщения:    

Текущее время: 22-Май 00:04

Часовой пояс: UTC ± 0



Вы не можете начинать темы
Вы не можете отвечать на сообщения
Вы не можете редактировать свои сообщения
Вы не можете удалять свои сообщения
Вы не можете голосовать в опросах
Вы не можете прикреплять файлы к сообщениям
Вы можете скачивать файлы