BitTorrent клиенты



Ладдалэнд / Soi-lat-daa-laen / Laddaland / Lost Home (Сопхон Сакдаписит / Sophon Sukdapisit) [2011, Таиланд, драма, мистика, ужасы, BDRemux 1080p] VO (cybervlad) + Sub Rus, Eng + Original Thai

Ответить на тему
 
Автор Сообщение

Keeper ®

Пол: Не указан

Стаж: 1 год

Сообщений: 499

Создавать темы 07-Фев-2018 20:44

[Цитировать]

Ладдалэнд / Soi-lat-daa-laen / Laddaland / Lost Home
Страна: Таиланд
Жанр: драма, мистика, ужасы
Год выпуска: 2011
Продолжительность: 01:57:28
Перевод: Одноголосый закадровый cybervlad
Субтитры: русские (107miller), английские
Оригинальная аудиодорожка: тайский
Режиссер: Сопхон Сакдаписит / Sophon Sukdapisit
В ролях: Сахарат Сангкаприча, Пиятида Ворамусик, Сутатта Удомсилп, Атипич Чутиваткаджорнчай и др.
Описание: Глава семьи Ти наконец осуществил свою мечту — купил дом в коттеджном поселке рядом с северной столицей Таиланда ЧиангМаи и перевозит туда из Бангкока жену, сына и дочь. Поселок как будто сошел с рекламного постера об идеальной жизни — ухоженные улочки, дети, играющие с собакой на зеленой лужайке, прекрасный вид на горы из окна… Но после того, как в холодильнике одного из домов обнаруживают изуродованное тело бирманской домработницы, идеальная жизнь рассыпается в прах — в поселке происходят необъяснимые смерти, люди сходят с ума после встречи с привидениями, а про соседей нельзя с уверенностью сказать, люди они, или призраки мертвых.
II Сэмпл II IMDB II
Релиз группа:

Доп. информация:
За одноголосый перевод спасибо лорди74
Тип релиза: BDRemux 1080p
Контейнер: MKV
Видео: AVC / 1920x1080 / 16:9 / 24.0fps / 19900Kbps / High@L4.1
Аудио 1: DTS / 48.0 KHz / 6ch / 1509kbps / 16bit / Rus / VO / cybervlad
Аудио 2: DTS-HD MA / 48.0 KHz / 6ch / 1853kbps / 16bit (DTS Core 48.0 KHz / 6ch / 1509kbps / 16bit) Thai
Формат субтитров: softsub (SRT)

MediaInfo

Общее
Уникальный идентификатор : 207264781999006755871483066749011090956 (0x9BEDBEB8C55026F5A1CFDD988EB7DE0C)
Полное имя : D:\_Torrent\HD1\Laddaland.2011.BDRemux.1080p_by_vedigo.mkv
Формат : Matroska
Версия формата : Version 4 / Version 2
Размер файла : 19,1 Гбайт
Продолжительность : 1 ч. 57 м.
Режим общего битрейта : Переменный
Общий поток : 23,3 Мбит/сек
Название фильма : Laddaland.2011.BDRemux.1080p_by_vedigo
Дата кодирования : UTC 2016-11-02 08:32:20
Программа кодирования : mkvmerge v9.5.0 ('Quiet Fire') 64bit
Библиотека кодирования : libebml v1.3.4 + libmatroska v1.4.5
Видео
Идентификатор : 1
Формат : AVC
Формат/Информация : Advanced Video Codec
Профиль формата : High@L4.1
Параметр CABAC формата : Да
Параметр ReFrames формата : 4 кадра
Параметр GOP формата : M=3, N=24
Идентификатор кодека : V_MPEG4/ISO/AVC
Продолжительность : 1 ч. 57 м.
Вид битрейта : Переменный
Битрейт : 19,9 Мбит/сек
Максимальный битрейт : 35,0 Мбит/сек
Ширина : 1920 пикселей
Высота : 1080 пикселей
Соотношение сторон : 16:9
Режим частоты кадров : Постоянный
Частота кадров : 24,000 кадра/сек
Стандарт вещания : NTSC
Цветовое пространство : YUV
Субдискретизация насыщенности : 4:2:0
Битовая глубина : 8 бит
Тип развёртки : Прогрессивная
Бит/(Пиксели*Кадры) : 0.400
Размер потока : 16,3 Гбайт (86%)
Заголовок : Laddaland.2011.BDRemux.1080p_by_vedigo
Default : Да
Forced : Нет
Цветовой диапазон : Limited
Основные цвета : BT.709
Характеристики трансфера : BT.709
Коэффициенты матрицы : BT.709
Аудио #1
Идентификатор : 2
Формат : DTS
Формат/Информация : Digital Theater Systems
Режим : 16
Параметр Endianness формата : Big
Идентификатор кодека : A_DTS
Продолжительность : 1 ч. 57 м.
Вид битрейта : Постоянный
Битрейт : 1510 Кбит/сек
Каналы : 6 каналов
Расположение каналов : Front: L C R, Side: L R, LFE
Частота : 48,0 КГц
Частота кадров : 93,750 кадра/сек (512 spf)
Битовая глубина : 16 бит
Метод сжатия : С потерями
Размер потока : 1,24 Гбайт (6%)
Заголовок : VO @ cybervlad
Язык : Russian
Default : Да
Forced : Нет
Аудио #2
Идентификатор : 3
Формат : DTS
Формат/Информация : Digital Theater Systems
Профиль формата : MA / Core
Режим : 16
Параметр Endianness формата : Big
Идентификатор кодека : A_DTS
Продолжительность : 1 ч. 57 м.
Вид битрейта : Переменный / Постоянный
Битрейт : 1853 Кбит/сек / 1509 Кбит/сек
Каналы : 6 каналов
Расположение каналов : Front: L C R, Side: L R, LFE
Частота : 48,0 КГц
Частота кадров : 93,750 кадра/сек (512 spf)
Битовая глубина : 16 бит
Метод сжатия : Без потерь / Lossy
Размер потока : 1,52 Гбайт (8%)
Заголовок : Original
Язык : Thai
Default : Нет
Forced : Нет
Текст #1
Идентификатор : 4
Формат : UTF-8
Идентификатор кодека : S_TEXT/UTF8
Идентификатор кодека/Информация : UTF-8 Plain Text
Продолжительность : 1 ч. 47 м.
Битрейт : 52 бит/сек
Count of elements : 656
Размер потока : 41,7 Кбайт (0%)
Заголовок : Subtitle rus @ 107miller
Язык : Russian
Default : Нет
Forced : Нет
Текст #2
Идентификатор : 5
Формат : UTF-8
Идентификатор кодека : S_TEXT/UTF8
Идентификатор кодека/Информация : UTF-8 Plain Text
Продолжительность : 1 ч. 47 м.
Битрейт : 29 бит/сек
Count of elements : 821
Размер потока : 22,8 Кбайт (0%)
Заголовок : Subtitle eng [BD]
Язык : English
Default : Нет
Forced : Нет
Меню
00:00:00.000 : en:00:00:00.000
00:05:42.958 : en:00:05:42.958
00:10:52.750 : en:00:10:52.750
00:17:09.917 : en:00:17:09.917
00:23:14.042 : en:00:23:14.042
00:29:27.250 : en:00:29:27.250
00:35:38.958 : en:00:35:38.958
00:40:49.375 : en:00:40:49.375
00:47:01.125 : en:00:47:01.125
00:54:00.542 : en:00:54:00.542
01:00:40.083 : en:01:00:40.083
01:04:51.792 : en:01:04:51.792
01:11:36.292 : en:01:11:36.292
01:17:09.833 : en:01:17:09.833
01:22:04.167 : en:01:22:04.167
01:28:06.875 : en:01:28:06.875
01:35:12.375 : en:01:35:12.375
01:40:21.000 : en:01:40:21.000
01:46:51.167 : en:01:46:51.167
01:52:11.292 : en:01:52:11.292

Скриншоты


[Профиль] [ЛС]
Показать сообщения:    
Ответить на тему

Текущее время: 19-Фев 23:58

Часовой пояс: UTC + 3



Вы не можете начинать темы
Вы не можете отвечать на сообщения
Вы не можете редактировать свои сообщения
Вы не можете удалять свои сообщения
Вы не можете голосовать в опросах
Вы не можете прикреплять файлы к сообщениям
Вы можете скачивать файлы