BitTorrent клиенты



Как справиться с отцом / Наравне с отцом / Getting Even with Dad (Ховард Дойч / Howard Deutch) [1994, США, Семейная комедия, DVDRip] AVO (Антон Пронин)

Ответить на тему
 
Автор Сообщение

Frozen ®

Пол: Не указан

Стаж: 1 год

Сообщений: 231

Создавать темы 08-Фев-2018 13:50

[Цитировать]

Как справиться с отцом / Наравне с отцом / Getting Even with Dad
«Timmy's not getting mad he's... Getting Even With Dad»
Страна: США
Жанр: Семейная комедия
Год выпуска: 1994
Продолжительность: 01:48:51
Перевод: Авторский (одноголосый закадровый) Антон Пронин
Субтитры: нет
Режиссер: Ховард Дойч / Howard Deutch
В ролях: Маколей Калкин, Тед Дэнсон, Гленн Хедли, Сол Рубинек, Гейлард Сартейн, Сэм МакМюррей, Гектор Элизондо, Сидни Уолкер, Кэтлин Уилхойт, Дэнн Флорек
Описание: Аннотация от alenavova
К отцу, недавно вышедшему из тюрьмы, приезжает его сын Томми. Все время папиного заключения Томми воспитывался у тети, но теперь она выходит замуж и возвращает чадо родителю. Но папа Рэй готовит вместе с сообщниками похищение редких монет, а сын ему явно мешает и крадет у преступников добычу, отказываясь ее отдавать, пока папа не проведет с ним неделю. Впрочем, именно вмешательство сына в дело отца поможет тому спастись от тюрьмы и обрести любовь... полицейской сыщицы.
Доп. информация: Дорожка с А. Прониным синхронизирована и наложена ale_x2008 при помощи Sony Vegas и VirtualDubMod.
За оцифрованную с VHS дорожку благодарим - alenavova
Релиз
Сэмпл: https://yadi.sk/i/GY5eEuTX3Njtu3
Качество видео: DVDRip
Формат видео: AVI
Видео: XviD build 73, 640x480 (1.33:1), 23.976 fps, 1598 kbps avg, 0.22 bit/pixel
Аудио: AC3 Dolby Digital, 48000Hz 2/0 (L,R) ch (mono), 192.00 kbps avg

MediaInfo

Наравне с отцом - Getting Even with Dad (by ale_x2008).avi
Format : AVI
Format/Info : Audio Video Interleave
File size : 1.37 GiB
Duration : 1 h 48 min
Overall bit rate : 1 800 kb/s
Movie name : Наравне с отцом - Getting Even with Dad (by ale_x2008)
Director : by ale_x2008
Writing application : VirtualDubMod 1.5.10.2 (build 2540/release)
Copyright : Edich2
Comment : RuTracker.org
Video
ID : 0
Format : MPEG-4 Visual
Format profile : Advanced Simple@L5
Format settings, BVOP : 2
Format settings, QPel : No
Format settings, GMC : No warppoints
Format settings, Matrix : Custom
Codec ID : XVID
Codec ID/Hint : XviD
Duration : 1 h 48 min
Bit rate : 1 598 kb/s
Width : 640 pixels
Height : 480 pixels
Display aspect ratio : 4:3
Frame rate : 23.976 (24000/1001) FPS
Color space : YUV
Chroma subsampling : 4:2:0
Bit depth : 8 bits
Scan type : Progressive
Compression mode : Lossy
Bits/(Pixel*Frame) : 0.217
Stream size : 1.22 GiB (89%)
Writing library : XviD 73
Audio
ID : 1
Format : AC-3
Format/Info : Audio Coding 3
Format settings, Endianness : Big
Codec ID : 2000
Duration : 1 h 48 min
Bit rate mode : Constant
Bit rate : 192 kb/s
Channel(s) : 2 channels
Channel positions : Front: L R
Sampling rate : 48.0 kHz
Frame rate : 31.250 FPS (1536 spf)
Bit depth : 16 bits
Compression mode : Lossy
Stream size : 149 MiB (11%)
Alignment : Split accross interleaves
Interleave, duration : 42 ms (1.00 video frame)
Interleave, preload duratio : 500 ms
Service kind : Complete Main

Скриншоты



[Профиль] [ЛС]
Показать сообщения:    
Ответить на тему

Текущее время: 20-Фев 00:12

Часовой пояс: UTC + 3



Вы не можете начинать темы
Вы не можете отвечать на сообщения
Вы не можете редактировать свои сообщения
Вы не можете удалять свои сообщения
Вы не можете голосовать в опросах
Вы не можете прикреплять файлы к сообщениям
Вы можете скачивать файлы