Статистика раздачи
Размер:  6,4 GB   |    Зарегистрирован:  9 месяцев 5 дней   |    Скачан:  0 раз

Полного источника не было: Никогда

Личеров:  1  [  0 KB/s  ]  
 
   
 
 

0H0 ®

Пол:
Не указан
Стаж:
9 месяцев 6 дней
Сообщений:
156

Трансформеры. Роботы под прикрытием / Transformers: Robots in Disguise
Страна: США, Hasbro Studios, Darby Pop Productions, Polygon Animation
Жанр: Мультсериал, детский, семейный, приключения
Продолжительность: 26 х ~ 00:20:40
Год выпуска: 2015
Перевод: Профессиональный (дублированный)
Русские субтитры: нет
Режиссёр: Скутер Тидвелл / Scooter Tidwell
Описание: Команда автоботов-новичков под предводительством Бамблби готовится к обороне Земли. Земле снова угрожают десептиконы, сбежавшие из рухнувшего на планету корабля-тюрьмы. Бамблби вызывают на Землю для подготовки группы автоботов-защитников. Он собирает команду неопытных трансформеров, в которую входит непослушный «плохиш» Сайдсвайп, кадет элитной гвардии Стронгарм, надменный динобот Гримлок и очень активный миникун Фиксит. Каждый из ботов обладает уникальными способностями, но совершенно не умеет работать в команде. Поэтому Бамблби становится для них не просто лидером, но также мудрым наставником, способным обучать новичков и разрешать конфликты внутри группы. Если подготовка пройдет успешно, Бамблби и команда смогут противостоять опасному врагу и выполнить порученную им миссию — защитить нашу планету.

Список серий

01. Пилот. Часть 1 / New Mission on Earth
02. Пилот. Часть 2 / The Devourer
03. Командная работа / Building Trust
04. Больше, чем кажется / Beyond Appearances
05. Быть лидером / A Day at the Museum
06. Приказ Каспиго / As the Kospego Commands!
07. Коллекционеры / Collect 'Em All
08. Настоящие цвета / True Colors
09. Один в поле не воин / Rumble in the Jungle
10. Враг под землёй / Can You Dig It?
11. Выследить Бамблби / Adventures in Bumblebee-sitting!
12. Сезон охоты / Hunting Season
13. Как в тумане / Sideways
14. Окольными путями / Sideways
15. Даже роботам бывает страшно / Even Robots Have Nightmares
16. Не в своём теле / Some Body, Any Body
17. Пропавший Мини-Бот / One of Our Mini-Cons Is Missing
18. Подводные неприятности / Deep Trouble
19. Чемпион / The Champ
20. Тёмная сторона Фиксита / The Trouble with Fixit
21. Захват / Lockout
22. Такие разные диноботы / Similarly Different
23. Виндблейд / The Buzz on Windblade
24. Призраки и самозванцы / Ghosts and Impostors
25. Поле боя. Часть 1 / Battlegrounds: Part 1
26. Поле боя. Часть 2 / Battlegrounds: Part 2
Семпл: http://sendfile.su/1146994
Качество: SATRip
Формат: AVI
Видео: Xvid 720x400 25fps 1 500 Kbps
Аудио: AC3 48000Hz stereo 192kbps
Субтитры: отсутствуют

Подробные технические данные

N:\2015_2015_2015\Трансформеры. Роботы под прикрытием.2015.XviD.SATRip\01. Пилот. Часть 1.avi
General
Complete name : N:\2015_2015_2015\Трансформеры. Роботы под прикрытием.2015.XviD.SATRip\01. Пилот. Часть 1.avi
Format : AVI
Format/Info : Audio Video Interleave
File size : 255 MiB
Duration : 20mn 57s
Overall bit rate : 1 702 Kbps
Director : SATRip by Thunder
Writing application : VirtualDubMod 1.5.10.3 | www.virtualdub-fr.org || (build 2550/release)
Original source form/Name : Cartoon
Video #0
ID : 0
Format : MPEG-4 Visual
Format profile : Advanced Simple@L5
Format settings, BVOP : Yes
Format settings, QPel : No
Format settings, GMC : No warppoints
Format settings, Matrix : Default (H.263)
Codec ID : XVID
Codec ID/Hint : XviD
Duration : 20mn 57s
Bit rate : 1 500 Kbps
Width : 720 pixels
Height : 400 pixels
Display aspect ratio : 16:9
Frame rate : 25.000 fps
Color space : YUV
Chroma subsampling : 4:2:0
Bit depth : 8 bits
Scan type : Progressive
Bits/(Pixel*Frame) : 0.208
Stream size : 225 MiB (88%)
Writing library : XviD 1.2.1 (UTC 2008-12-04)
Audio #1
ID : 1
Format : AC-3
Format/Info : Audio Coding 3
Mode extension : CM (complete main)
Codec ID : 2000
Duration : 20mn 57s
Bit rate mode : Constant
Bit rate : 192 Kbps
Channel(s) : 2 channels
Channel positions : Front: L R
Sampling rate : 48.0 KHz
Bit depth : 16 bits
Stream size : 28.8 MiB (11%)
Alignment : Split accross interleaves
Interleave, duration : 40 ms (1.00 video frame)
Interleave, preload duration : 500 ms

Скриншоты


[cybertorrent.ru].t2407.torrent 
Торрент: Зарегистрирован [ 2018-02-16 11:35 ] · CA07AD2A53BCB809C79B901FB227FA308FB2206D

Скачать .torrent

Скачать

11 KB

Статус: проверено
Скачан: 0 раз
Размер: 6,4 GB
Профиль [ЛС]
Показать сообщения:    

Текущее время: 21-Ноя 16:45

Часовой пояс: UTC ± 0



Вы не можете начинать темы
Вы не можете отвечать на сообщения
Вы не можете редактировать свои сообщения
Вы не можете удалять свои сообщения
Вы не можете голосовать в опросах
Вы не можете прикреплять файлы к сообщениям
Вы можете скачивать файлы
Torrents24.ru открытый BitTorrent Torrents24.pl открытый BitTorrent CyberTorrent.ru открытый BitTorrent BtList.ru рейтинг BitTorrent трекеров Яндекс.Метрика