Статистика раздачи
Размер:  741 MB   |    Зарегистрирован:  3 месяца 9 дней   |    Скачан:  0 раз

Полного источника не было: Никогда

 
   
 
 

lopster ®

Пол:
Не указан
Стаж:
3 месяца 9 дней
Сообщений:
612

Одноклассницы: Новый поворот
Жанр: Комедия
Год выпуска: 2017
Продолжительность: 01:16:05
Режиссёр: Дмитрий Суворов
В ролях: Светлана Ходченкова, Екатерина Вилкова, Ольга Кузьмина, Валентина Мазунина, Дмитрий Хрусталёв, Илья Любимов, Арарат Кещян, Антон Макарский, Роман Юнусов, Данила Якушев
Описание: Спустя год после свадьбы Кати, обручальное кольцо спешит примерить Даша, нашедшая свою судьбу в лице банковского работника «короля кредитов» Миши.
Но как водится, гладко все не бывает. Смогут ли лучшие подруги спасти свадьбу Даши?
Сэмпл: http://multi-up.com/1146624
Качество видео: WEB-DLRip
Формат видео: AVI
Видео: 688x288 (2.39:1), 24 fps, XviD build 73 ~1224 kbps avg, 0.26 bit/pixel
Аудио: 48 kHz, MPEG Layer 3, 2 ch, ~128.00 kbps avg

MediaInfo

Формат : AVI
Формат/Информация : Audio Video Interleave
Размер файла : 741 Мбайт
Продолжительность : 1 ч. 16 м.
Общий поток : 1362 Кбит/сек
Программа кодирования : VirtualDubMod 1.5.10.3 | www.virtualdub-fr.org || (build 2550/release)
Библиотека кодирования : VirtualDubMod build 2550/release
Видео
Идентификатор : 0
Формат : MPEG-4 Visual
Профиль формата : Advanced Simple@L5
Параметр BVOP формата : 1
Параметр QPel формата : Нет
Параметр GMC формата : Без точки перехода
Параметр матрицы формата : Выборочная
Идентификатор кодека : XVID
Идентификатор кодека/Подсказка : XviD
Продолжительность : 1 ч. 16 м.
Битрейт : 1225 Кбит/сек
Ширина : 688 пикселей
Высота : 288 пикселей
Соотношение сторон : 2,40:1
Частота кадров : 24,000 кадра/сек
Цветовое пространство : YUV
Субдискретизация насыщенности : 4:2:0
Битовая глубина : 8 бит
Тип развёртки : Прогрессивная
Метод сжатия : С потерями
Бит/(Пиксели*Кадры) : 0.258
Размер потока : 667 Мбайт (90%)
Библиотека кодирования : XviD 73
Аудио
Идентификатор : 1
Формат : MPEG Audio
Версия формата : Version 1
Профиль формата : Layer 3
Идентификатор кодека : 55
Идентификатор кодека/Подсказка : MP3
Продолжительность : 1 ч. 16 м.
Вид битрейта : Постоянный
Битрейт : 128 Кбит/сек
Каналы : 2 канала
Частота : 48,0 КГц
Метод сжатия : С потерями
Размер потока : 69,7 Мбайт (9%)
Выравнивание : Соединение по промежуткам
Продолжительность промежутка : 42 мс. (1,00 видеокадр)
Время предзагрузки промежутка : 504 мс.
Библиотека кодирования : LAME3.99r
Настройки программы : -m s -V 4 -q 2 -lowpass 17 -b 128

Скриншоты

[cybertorrent.ru].t241.torrent 
Торрент: Зарегистрирован [ 2018-02-15 15:34 ] · 1566386D0C700A2A336E1DA05BBFAECFAD4AD855

Скачать .torrent

Скачать

15 KB

Статус: проверено
Скачан: 0 раз
Размер: 741 MB
Профиль [ЛС]
Показать сообщения:    

Текущее время: 25-Май 08:46

Часовой пояс: UTC ± 0



Вы не можете начинать темы
Вы не можете отвечать на сообщения
Вы не можете редактировать свои сообщения
Вы не можете удалять свои сообщения
Вы не можете голосовать в опросах
Вы не можете прикреплять файлы к сообщениям
Вы можете скачивать файлы