Статистика раздачи
Размер:  37,35 GB   |    Зарегистрирован:  5 месяцев 4 дня   |    Скачан:  0 раз

Полного источника не было: Никогда

 
   
 
 

tvoja_zaja ®

Пол:
Не указан
Стаж:
5 месяцев 5 дней
Сообщений:
126

Том и Джерри. Звёздная коллекция / Tom and Jerry. Spotlight Collection
Страна: США
Жанр: мультфильм
Продолжительность:110 x ~00:07:30
Год выпуска: 1940-1958
Перевод: Профессиональный (многоголосый закадровый) R5
Русские субтитры: нет
Режиссёр: Джозеф Барбера, Уильям Ханна / Joseph Barbera, William Hanna
Описание: Кот Том и мышонок Джерри - парочка, прославившаяся на весь мир. Уже несколько десятков лет Том гоняется за Джерри с неослабевающим азартом. Том придумывает всё новые и новые хитроумные уловки, чтобы поймать Джерри, но мышонок всё время выкручивается с не меньшей изобретательностью.
Качество: DVD9
Формат: DVD-Video
Видео: PAL, 4:3, 720x576, 6500 kb/s
Аудио: Русский, AC3, 2 ch, 128 kb/s
Аудио 2: Английский, AC3, 1 сh, 128 kb/s
Субтитры: Отсутствуют

Подробные технические данные

Общее
Полное имя : H:\Tom and Jerry\Tom and Jerry. Spotlight Collection (R5)\TOM 1\VIDEO_TS\VTS_13_1.VOB
Формат : MPEG-PS
Размер файла : 358 Мбайт
Продолжительность : 7 м. 17 с.
Общий поток : 6875 Кбит/сек
Видео
Идентификатор : 224 (0xE0)
Формат : MPEG Video
Версия формата : Version 2
Профиль формата : Main@Main
Параметр BVOP формата : Да
Параметр матрицы формата : Выборочная
Параметр GOP формата : M=3, N=15
Format_Settings_PictureStructure : Frame
Продолжительность : 7 м. 17 с.
Битрейт : 6500 Кбит/сек
Ширина : 720 пикселей
Высота : 576 пикселей
Соотношение сторон : 4:3
Частота кадров : 25,000 кадров/сек
Стандарт вещания : PAL
Цветовое пространство : YUV
Субдискретизация насыщенности : 4:2:0
Битовая глубина : 8 бит
Тип развёртки : Чересстрочная
Порядок развёртки : Верхнее поле первое
Метод сжатия : С потерями
Бит/(Пиксели*Кадры) : 0.627
Временной код первого кадра : 00:00:00:00
Оригинал временного кода : Group of pictures header
Размер потока : 338 Мбайт (94%)
Аудио #1
Идентификатор : 189 (0xBD)-128 (0x80)
Формат : AC-3
Формат/Информация : Audio Coding 3
Расширение режима : CM (complete main)
Параметр Endianness формата : Big
Режим смешивания : DVD-Video
Продолжительность : 7 м. 16 с.
Вид битрейта : Постоянный
Битрейт : 128 Кбит/сек
Каналы : 2 канала
Расположение каналов : Front: L R
Частота : 48,0 КГц
Битовая глубина : 16 бит
Метод сжатия : С потерями
Размер потока : 6,67 Мбайт (2%)
Аудио #2
Идентификатор : 189 (0xBD)-129 (0x81)
Формат : AC-3
Формат/Информация : Audio Coding 3
Расширение режима : CM (complete main)
Параметр Endianness формата : Big
Режим смешивания : DVD-Video
Продолжительность : 7 м. 17 с.
Вид битрейта : Постоянный
Битрейт : 128 Кбит/сек
Каналы : 1 канал
Расположение каналов : Front: C
Частота : 48,0 КГц
Битовая глубина : 16 бит
Метод сжатия : С потерями
Размер потока : 6,67 Мбайт (2%)
Меню

Скриншоты меню

Скриншоты

- Сезон 1, Том 1
Список серий:
01. Мышонок-стратег
02. К чему приводит жадность
03. Нелегко быть младенцем
04. Кот-стиляга
05. Кот-миллионер
06. Телохранитель
07. Неуловимый мышонок
08. Игра в гольф
09. Птичке хочется любви
10. Соблюдайте тишину
11. Подкидыш
12. Шумная серенада
13. Том и Джерри на рыбалке
14. Концерт для кота с оркестром!
15. Надо друга выручить
16. Мирный договор
17. Приключения на пляже
18. Мышонок-невидимка
19. Голодный сирота
20. Как попасть в рай- Сезон 1, Том 2
Список серий:
01. Том - ковбой
02. Джерри и лев
03. Хочу быть дирижером
04. Джерри и золотая рыбка
05. Однажды в бильярдной
06. Сынуля - чистюля
07. Джерри и его братишка
08. Отдых на свежем воздухе
09. Кот - летун
10. Два мушкетера
11. Поражения мышонка
12. Два маленьких индейца
13. Липовый младенец
14. Мышиные слабости
15. Том - изобретатель
16. Надоедливый дядюшка Пекос
17. Защищайтесь, месье кот
18. И немного колдовства
19. Печальная история- Сезон 2, Том 1
Список серий:
01. За что наказали кота
02. Поздний ужин
03. Ночь перед рождеством
04. Кот-трусишка
05. Пес нам не товарищ
06. Гости не должны скучать
07. Давай сыграем в кегли
08. Пернатая заступница
09. Когда мышонку стало скучно
10. В собачьей шкуре
11. Романтический ужин
12. Мышонок в Нью-Йорке
13. Пришла весна
14. Охота на мышей
15. Перемирие
16. Доктор Джекил и мистер Мышь
17. Старый добрый Том
18. Том-учитель
19. Подводная охота
20. Кот в крапинку- Сезон 2, Том 2
Список серий:
01. Кошачья вечеринка
02. Мышонок и утенок против кота
03. Том-ковбой
04. Шумный праздник
05. Ах, как хочется спать
06. Не бейте кота по голове
07. Кот-матрос
08. Три ангелочка
09. Плоды прогресса
10. Мышонок-беглец
11. Джерри и слоненок
12. Про утенка, который не умел плавать
13. школа для мышат
14. Любовь требует жертв
15. Том-спортсмен
16. Медведь, который любил танцевать
17. Мышонок-тореадор
18. Образцовые няньки- Сезон 3, Том 1
Список серий:
01. Если в доме мыши
02. Нам не страшен серый кот
03. Родительская любовь
04. Дневник Джерри
05. Теннисисты
06. Любимая косточка
07. Кот - Робинзон
08. Джерри - уличный доктор
09. Побег
10. Защитник на привязи
11. Собачья конура
12. Что должен уметь щенок
13. Писатель Джерри
14. Про щенка
15. Что зарабатываешь, то и получишь
16. Щенок, который все время икал
17. Разочарованный утенок
18. Неаполитанские страдания- Сезон 3, Том 2
Список серий:
01. Любимая мозоль
02. Как утенок на юг собирался
03. Пикник
04. Это моя мама
05. Нам не страшен серый кот
06. Хлопоты приятелей
07. Завтрак на свежем воздухе
08. Родительская любовь
09. Трусливый родственник
10. Голодный сирота
11. Неопровержимая улика
12. Про утенка, который не умел плавать
13. Дайте же королю поспать
14. Невидимый утенок
15. Спасти Робин Гуда
[cybertorrent.ru].t2416.torrent 
Торрент: Зарегистрирован [ 2018-02-16 11:35 ] · BE028BBB42516149DF6C270844178C9FA39FAC7C

Скачать .torrent

Скачать

243 KB

Статус: проверено
Скачан: 0 раз
Размер: 37,35 GB
Профиль [ЛС]
Показать сообщения:    

Текущее время: 20-Июл 14:06

Часовой пояс: UTC ± 0



Вы не можете начинать темы
Вы не можете отвечать на сообщения
Вы не можете редактировать свои сообщения
Вы не можете удалять свои сообщения
Вы не можете голосовать в опросах
Вы не можете прикреплять файлы к сообщениям
Вы можете скачивать файлы