Статистика раздачи
Размер:  234 MB   |    Зарегистрирован:  8 месяцев 4 дня   |    Скачан:  0 раз

Полного источника не было: Никогда

Личеров:  1  [  0 KB/s  ]  
 
   
 
 

soda ®

Пол:
Не указан
Стаж:
8 месяцев 5 дней
Сообщений:
230

.хак//Трилогия - Режим Пародии / .hack//G.U. Trilogy - Parody Mode
Страна: Япония
Год выпуска: 2008 г.
Жанр: приключения, фэнтези
Тип: Special
Продолжительность: 1 эп., 6 мин.
Режиссер: Мацуяма Хироси
Студия: Bandai Visual
Описание: Небольшая пародийная зарисовка на .hack//G.U. Trilogy
Качество: BDRip
Тип релиза: Без хардсаба
Формат видео: MKV
Наличие линковки: Нет
Релиз/Автор рипа: LuPerry
Видео: AVC, 1920x1280, 5000 kbps, 23.976 fps, 8 bit
Аудио: JAP(int), AC-3, 256 kbps, 48000 Hz, 2 ch
Субтитры 1: ENG, ass, встроенные
Субтитры 2: ENG, srt, встроенные
Субтитры 3: RUS, ass, внешние, [Aragami Fansubs] переводчик: Poccu9i

Подробные тех. данные

Общее
Уникальный идентификатор : 192713837167801173019967587693310583162 (0x90FB55C096C234CE990422EBA45D217A)
Полное имя : X:\hack\#08 .hack G.U. Trilogy\[LuPerry]_dot_hack_GU_TRILOGY_PARODY_MODE_1920x1080(x264_AC3).mkv
Формат : Matroska
Версия формата : Version 1
Размер файла : 234 Мбайт
Продолжительность : 6 м. 12 с.
Общий поток : 5259 Кбит/сек
Дата кодирования : UTC 2008-04-18 00:49:49
Программа кодирования : mkvmerge v2.2.0 ('Turn It On Again') built on Mar 4 2008 12:58:26
Библиотека кодирования : libebml v0.7.7 + libmatroska v0.8.1
Видео
Идентификатор : 1
Формат : AVC
Формат/Информация : Advanced Video Codec
Профиль формата : Main@L5.1
Параметр CABAC формата : Нет
Параметр ReFrames формата : 5 кадров
Идентификатор кодека : V_MPEG4/ISO/AVC
Продолжительность : 6 м. 12 с.
Битрейт : 5000 Кбит/сек
Ширина : 1920 пикселей
Высота : 1080 пикселей
Соотношение сторон : 16:9
Режим частоты кадров : Постоянный
Частота кадров : 29,970 кадров/сек
Цветовое пространство : YUV
Субдискретизация насыщенности : 4:2:0
Битовая глубина : 8 бит
Тип развёртки : Прогрессивная
Бит/(Пиксели*Кадры) : 0.080
Размер потока : 218 Мбайт (93%)
Библиотека кодирования : x264 core 59 r818M d4b7d2b
Настройки программы : cabac=0 / ref=5 / deblock=1:0:0 / analyse=0x1:0x111 / me=hex / subme=6 / me-prepass=0 / brdo=1 / mixed_ref=1 / me_range=16 / chroma_me=1 / trellis=0 / 8x8dct=0 / cqm=0 / deadzone=21,11 / chroma_qp_offset=0 / threads=3 / nr=0 / decimate=1 / mbaff=0 / bframes=3 / b_pyramid=1 / b_adapt=1 / b_bias=0 / direct=1 / wpredb=1 / bime=1 / keyint=250 / keyint_min=25 / scenecut=40(pre) / rc=2pass / bitrate=5000 / ratetol=2.0 / rceq='blurCplx^(1-qComp)' / qcomp=1.00 / qpmin=10 / qpmax=51 / qpstep=4 / cplxblur=20.0 / qblur=0.5 / ip_ratio=1.40 / pb_ratio=1.30 / aq=2:1.00
Default : Да
Forced : Нет
Аудио
Идентификатор : 2
Формат : AC-3
Формат/Информация : Audio Coding 3
Расширение режима : CM (complete main)
Параметр Endianness формата : Big
Идентификатор кодека : A_AC3
Продолжительность : 6 м. 12 с.
Вид битрейта : Постоянный
Битрейт : 256 Кбит/сек
Каналы : 2 канала
Расположение каналов : Front: L R
Частота : 48,0 КГц
Метод сжатия : С потерями
Размер потока : 11,4 Мбайт (5%)
Язык : Japanese
Default : Да
Forced : Нет
Текст #1
Идентификатор : 3
Формат : ASS
Идентификатор кодека : S_TEXT/ASS
Идентификатор кодека/Информация : Advanced Sub Station Alpha
Метод сжатия : Без потерь
Язык : English
Default : Да
Forced : Нет
Текст #2
Идентификатор : 4
Формат : UTF-8
Идентификатор кодека : S_TEXT/UTF8
Идентификатор кодека/Информация : UTF-8 Plain Text
Язык : English
Default : Нет
Forced : Нет

Список эпизодов

Parody Mode

Скриншоты

[cybertorrent.ru].t2424.torrent 
Торрент: Зарегистрирован [ 2018-02-16 11:35 ] · 59BBFA093F00C2C9557648C00AD4201D38296CB9

Скачать .torrent

Скачать

19 KB

Статус: проверено
Скачан: 0 раз
Размер: 234 MB
Профиль [ЛС]
Показать сообщения:    

Текущее время: 20-Окт 23:11

Часовой пояс: UTC ± 0



Вы не можете начинать темы
Вы не можете отвечать на сообщения
Вы не можете редактировать свои сообщения
Вы не можете удалять свои сообщения
Вы не можете голосовать в опросах
Вы не можете прикреплять файлы к сообщениям
Вы можете скачивать файлы
Torrents24.ru открытый BitTorrent Torrents24.pl открытый BitTorrent CyberTorrent.ru открытый BitTorrent BtList.ru рейтинг BitTorrent трекеров Яндекс.Метрика