Статистика раздачи
Размер:  753 MB   |    Зарегистрирован:  3 месяца 12 дней   |    Скачан:  0 раз

Полного источника не было: Никогда

Личеров:  6  [  0 KB/s  ]  
 
   
 
 

lopster ®

Пол:
Не указан
Стаж:
3 месяца 12 дней
Сообщений:
612

Покаянная любовь Год выпуска: 2003.
Жанр: драма, экранизация.
Продолжительность: 01:36:30.
Режиссер: Василий Панин.
В ролях:
Ирина Скобцева, Людмила Хитяева, Юрий Соломин, Лев Дуров, Раиса Рязанова, Александр Иркут, Анастасия Колпикова, Мария Глазкова, Александр Пятков, Александр Вершинин, Григорий Дунаев, Иван Тюрин, Ольга Исакина, Олег Хабалов, Ирина Федорова, Юрий Егоров, Вячеслав Кузнецов, Ирина Ефремова, Ваня Толстой.
Описание:
По повести Льва Толстого "Дьявол".
Свой фильм режиссер Василий Панин посвятил творчеству Льва Николаевича Толстого. В основу сценария "Покаянной любви" кроме неоконченной рукописи "Дьявола" положены дневники писателя. Связь барина с крестьянкой Степанидой показана трогательной и одновременно преступной. Это территория любовного треугольника, где муки совести соседствуют с муками страсти.
Молодой дворянин Евгений Иртенев пытается бороться со своей страстью к крестьянской девке Степаниде. Его жена хороша собой, умна. Но Евгений не в силах удержаться от соблазна... Философия любви, борьба с грехом.
Доп. информация:
Страна: Россия .
Киностудия: Киностудия им. Горького, киностудия «Донфильм».
Авторы сценария: Виктор Георгиевский, Егор Исаев, Василий Панин.
Оператор: Михаил Коропцов.
Композитор: Елена Спас.
Художник: Валентин Вырвич.
Премьера: 7 апреля 2005.

Еще постеры

Релиз

Качество: TVRip
Формат: AVI
Видео: 640x480 (1.33:1), 25 fps, XviD MPEG-4 ~952 kbps avg, 0.12 bit/pixel
Аудио: 44.100 kHz, MPEG Layer 3, 2 ch, ~128.00 kbps avg

Отчет Media Info

Общее
Полное имя : Pokayannaya.lyubov'.2003.XviD.TVRip.fenixclub.avi
Format : AVI
Format/Info : Audio Video Interleave
File size : 753 MiB
Duration : 1h 36mn
Overall bit rate : 1 091 Kbps
Video
ID : 0
Format : MPEG-4 Visual
Format profile : Advanced Simple@L5
Format settings, BVOP : 2
Format settings, QPel : No
Format settings, GMC : No warppoints
Format settings, Matrix : Custom
Codec ID : XVID
Codec ID/Hint : XviD
Duration : 1h 36mn
Bit rate : 953 Kbps
Width : 640 pixels
Height : 480 pixels
Display aspect ratio : 4:3
Frame rate : 25.000 fps
Color space : YUV
Chroma subsampling : 4:2:0
Bit depth : 8 bits
Scan type : Progressive
Compression mode : Lossy
Bits/(Pixel*Frame) : 0.124
Stream size : 658 MiB (87%)
Writing library : XviD 73
Audio
ID : 1
Format : MPEG Audio
Format version : Version 1
Format profile : Layer 3
Codec ID : 55
Codec ID/Hint : MP3
Duration : 1h 36mn
Source duration : 1h 36mn
Bit rate mode : Constant
Bit rate : 128 Kbps
Channel(s) : 1 channel
Sampling rate : 44.1 KHz
Compression mode : Lossy
Stream size : 88.3 MiB (12%)
Alignment : Aligned on interleaves
Interleave, duration : 40 ms (1.00 video frame)
Writing library : LAME3.99r
Encoding settings : -m m -V 4 -q 3 -lowpass 20.5 -b 128

Скриншоты


Альтернативный хост


[cybertorrent.ru].t243.torrent 
Торрент: Зарегистрирован [ 2018-02-15 15:34 ] · 3071D797C6567620F1B77866528AF21E4378C0A3

Скачать .torrent

Скачать

15 KB

Статус: проверено
Скачан: 0 раз
Размер: 753 MB
Профиль [ЛС]
Показать сообщения:    

Текущее время: 28-Май 03:25

Часовой пояс: UTC ± 0



Вы не можете начинать темы
Вы не можете отвечать на сообщения
Вы не можете редактировать свои сообщения
Вы не можете удалять свои сообщения
Вы не можете голосовать в опросах
Вы не можете прикреплять файлы к сообщениям
Вы можете скачивать файлы